<?xml version="1.0" standalone="no"?>
<!DOCTYPE svg PUBLIC "-//W3C//DTD SVG 1.1//EN" "http://www.w3.org/Graphics/SVG/1.1/DTD/svg11.dtd" >
<svg xmlns="http://www.w3.org/2000/svg" xmlns:xlink="http://www.w3.org/1999/xlink" version="1.1">
<metadata></metadata>
<defs>
<font id="literature_decorregular" horiz-adv-x="1622" >
<font-face units-per-em="2048" ascent="1638" descent="-410" />
<missing-glyph horiz-adv-x="798" />
<glyph horiz-adv-x="0" />
<glyph horiz-adv-x="0" />
<glyph horiz-adv-x="682" />
<glyph unicode="&#xa;" horiz-adv-x="0" />
<glyph unicode="&#xd;" horiz-adv-x="0" />
<glyph unicode=" "  horiz-adv-x="798" />
<glyph unicode="&#x09;" horiz-adv-x="798" />
<glyph unicode="&#xa0;" horiz-adv-x="798" />
<glyph unicode="!" horiz-adv-x="534" d="M104 1417h330l-145 -1009h-39zM164 90q0 43 30.5 74t73.5 31t74 -31t31 -74t-31 -73.5t-74 -30.5t-73.5 30.5t-30.5 73.5z" />
<glyph unicode="&#x22;" horiz-adv-x="716" d="M66 1341q0 43 30.5 74t73.5 31h12l-6 2q37 0 71 -31t56.5 -80t27.5 -112.5t-13.5 -130t-66.5 -131t-134 -113.5l-21 33q76 45 117 100t54.5 108.5t6 101.5t-25.5 81q-31 -37 -78 -37q-43 0 -73.5 30.5t-30.5 73.5zM360 1339q0 43 31 74t74 31h12l-6 2q37 0 70.5 -31 t56.5 -80t28 -112.5t-13.5 -130t-66.5 -131t-134 -113.5l-21 33q76 45 117 100t54 108.5t6 101.5t-25 81q-31 -37 -78 -37q-43 0 -74 30.5t-31 73.5z" />
<glyph unicode="#" horiz-adv-x="1185" d="M70 207l8 33h272l107 442h-273l9 33h272l49 209h33l-49 -209h313l49 209h33l-49 -209h272l-8 -33h-272l-107 -442h272l-8 -33h-272l-49 -209h-33l49 209h-313l-49 -209h-33l49 209h-272zM383 240h313l107 442h-314z" />
<glyph unicode="$" horiz-adv-x="1284" d="M86 16l72 365h26q23 -74 67 -134.5t99.5 -106.5t120 -75.5t129.5 -41.5v706q-74 31 -145.5 63.5t-128 75.5t-91 98.5t-34.5 133.5q0 100 33.5 168.5t89 110.5t127 59.5t149.5 15.5v92h33v-94q80 -6 156.5 -27.5t138.5 -52.5l266 92l14 -14l-231 -293h-25l-6 2 q-59 123 -145 186.5t-172 77.5v-530q39 -18 86 -37q86 -31 167 -73t144.5 -98t102 -132t38.5 -174q0 -111 -46 -187.5t-121.5 -125t-173 -67.5t-197.5 -15v-88h-33v90q-109 10 -207 45t-170 92l-115 -113zM338 1192q0 -96 64.5 -161.5t193.5 -125.5v522q-53 2 -99 -12 t-82 -45t-56.5 -76t-20.5 -102zM629 18q70 -8 135 6.5t116.5 52.5t81 102.5t29.5 156.5q0 80 -30.5 137t-81 102.5t-116 78t-134.5 63.5v-699z" />
<glyph unicode="%" horiz-adv-x="833" d="M82 1231q0 78 37 132t125 54q45 0 76.5 -14t51 -40t28 -59.5t8.5 -72.5q0 -78 -40 -132.5t-124 -54.5q-86 0 -124 54.5t-38 132.5zM115 1231q0 -66 30.5 -111t96.5 -45t96.5 45t30.5 111t-28 110.5t-97 44.5q-68 0 -96.5 -45t-28.5 -110h-4zM176 2l428 1415h33 l-428 -1415h-33zM422 186q0 78 37 132.5t125 54.5q45 0 76.5 -14.5t51 -40t28 -59.5t8.5 -73q0 -78 -40 -132t-124 -54q-86 0 -124 54.5t-38 131.5zM457 186q0 -66 30.5 -110.5t96.5 -44.5h-4q66 0 96.5 45t30.5 110q0 66 -28 111t-97 45q-68 0 -96.5 -45t-28.5 -111z" />
<glyph unicode="&#x26;" horiz-adv-x="1462" d="M111 455q0 98 33.5 171.5t89 123t125 78t141.5 38.5q-160 29 -243 97.5t-83 185.5q0 88 50 146.5t127 93t168 49t171 14.5q82 0 145.5 -17.5t107.5 -45t67.5 -61.5t27.5 -68v-13q0 -41 -27.5 -68.5t-68.5 -27.5t-70.5 29.5t-29.5 70.5q0 31 16 55.5t43 34.5 q-31 35 -83 52.5t-111.5 18.5t-121 -14.5t-110.5 -47t-79.5 -81.5t-30.5 -116q0 -145 91 -208.5t265 -61.5v-33q-205 0 -312.5 -103.5t-107.5 -297.5q0 -96 30.5 -175t85 -135.5t126 -87.5t153.5 -31q141 0 220 108t79 300q0 106 -36.5 168.5t-86 90.5t-99.5 29t-77 -14 l-26 17q92 82 164.5 103.5t133 13t111.5 -34t100.5 -41t98.5 -6t108 70.5l25 -32l-2 -5q-72 -63 -132 -85.5t-113.5 -20.5t-101.5 20.5t-93 36t-90 25.5t-95 -10q53 8 119 -11.5t122 -62.5t94 -107.5t38 -146.5q0 -111 -42 -193.5t-108.5 -139t-149.5 -84t-163 -27.5 q-90 0 -191.5 23.5t-189.5 77.5t-145 145t-57 227z" />
<glyph unicode="'" horiz-adv-x="428" d="M70 1339q0 43 30.5 74t75.5 31h12l-6 2q37 0 71 -31t56.5 -80t27.5 -112.5t-13.5 -130t-66.5 -131t-134 -113.5l-21 33q76 45 117 100t54.5 108.5t6 101.5t-25.5 81q-31 -37 -78 -37q-45 0 -75.5 30.5t-30.5 73.5z" />
<glyph unicode="(" horiz-adv-x="583" d="M115 539q0 115 19.5 217t52 192t74.5 167t85 138q100 145 232 256l18 -28q-94 -68 -166 -193q-31 -53 -61.5 -124.5t-53 -164t-37 -207t-14.5 -253.5t14.5 -255t37 -208t53 -164t61.5 -125q72 -127 166 -190l-18 -29q-131 111 -232 256q-43 61 -85 138t-74.5 166 t-52 192.5t-19.5 218.5z" />
<glyph unicode=")" horiz-adv-x="583" d="M-12 -406q92 63 166 191q31 53 60.5 125t53 164t37.5 207.5t14 255.5q0 139 -14 253.5t-37.5 207t-53.5 164t-60 124.5q-74 125 -166 193l18 28q129 -111 232 -256q43 -61 85 -138t73.5 -167t52 -192.5t20.5 -216.5q0 -115 -20.5 -218.5t-52 -192.5t-73.5 -166t-85 -138 q-102 -145 -232 -256z" />
<glyph unicode="*" horiz-adv-x="792" d="M86 1112q14 41 53 61.5t80 6.5q35 -12 53 -41q14 -20 26.5 -42t25 -38.5t24.5 -23.5t27 3q14 10 12 24.5t-13.5 31t-27.5 36t-31 39.5q-23 29 -22 66q0 43 30.5 73.5t73.5 30.5q45 0 76 -30.5t31 -75.5q0 -37 -23 -66q-14 -20 -30.5 -38.5t-28.5 -36t-14 -30.5t10 -24 q14 -10 26.5 -4t25.5 21.5t26.5 38t27.5 43.5q18 29 54 41q41 14 79.5 -6.5t53.5 -61.5l-4 2q14 -41 -6.5 -80t-61.5 -53q-35 -12 -68 0q-23 8 -46 17.5t-42.5 15.5t-33 4t-19.5 -19q-6 -16 4 -26t28.5 -17.5t43 -13.5t49.5 -14q35 -10 57 -41q27 -35 20 -78t-42 -70 t-78 -19.5t-70 42.5q-20 29 -20 65q0 25 3 50.5t3 46t-6 34t-23 13.5q-18 0 -24 -12.5t-8 -33t0 -46t2 -50.5q0 -37 -21 -65q-27 -35 -69.5 -42t-77.5 19q-35 27 -42 70t19 78q23 31 58 41q25 6 49 11t43.5 12t30 16.5t6.5 25.5t-18.5 19.5t-34 -1.5t-43 -14.5t-48.5 -17.5 q-33 -12 -67 0q-41 14 -61.5 53t-6.5 80z" />
<glyph unicode="+" horiz-adv-x="624" d="M59 457v32h236v236h33v-236h235v-32h-235v-236h-33v236h-236z" />
<glyph unicode="," horiz-adv-x="362" d="M45 78q0 43 30.5 73.5t76.5 30.5h12h-6q37 0 70.5 -30.5t56 -79.5t27.5 -112.5t-13 -130.5t-66.5 -131.5t-134.5 -113.5l-20 33q76 45 117 100.5t54 108.5t6 101t-26 81q-31 -37 -77 -37q-45 0 -76 31t-31 76z" />
<glyph unicode="-" horiz-adv-x="546" d="M20 457v32h504v-32h-504z" />
<glyph unicode="." horiz-adv-x="315" d="M53 90q0 43 31 74t74 31t73.5 -31t30.5 -74t-30.5 -73.5t-73.5 -30.5t-74 30.5t-31 73.5z" />
<glyph unicode="/" horiz-adv-x="473" d="M72 -117l272 1415h33l-273 -1415h-32z" />
<glyph unicode="0" horiz-adv-x="1474" d="M111 715q0 170 49 305t134 229t199.5 144.5t243.5 50.5t244 -50.5t200 -143.5t134 -228t49 -307q0 -178 -49 -314.5t-134 -228.5t-200 -139t-244 -47t-243.5 48t-199.5 141t-134 229.5t-49 310.5zM299 713q0 -166 35 -294t94 -216t139 -134t170 -46t170 45t139.5 132 t94.5 216t35 297q0 162 -35 289.5t-94.5 217t-139.5 136.5t-170 47t-170 -47t-139 -136.5t-94 -217.5t-35 -289z" />
<glyph unicode="1" horiz-adv-x="763" d="M47 1262v47q51 2 105 14q47 10 104 31.5t115 58.5h291v-16l-54 -11l2 -4q-25 -4 -40 -23.5t-15 -43.5v-1227q0 -25 15.5 -44t39.5 -24l54 -10v-16h-400v16l53 10q25 4 40.5 23.5t15.5 44.5v1229q-47 -31 -103.5 -42t-105.5 -15q-57 -4 -117 2z" />
<glyph unicode="2" horiz-adv-x="1200" d="M97 1018q-7 84 48.5 180t194.5 178q94 55 189.5 72.5t178.5 4.5t146.5 -56t92 -108.5t15 -152.5t-80.5 -188q-82 -123 -158 -210t-147.5 -163.5t-143.5 -156.5t-147 -191q74 47 149.5 38t144 -39.5t129 -63.5t105.5 -33q49 0 97 37t89 84q43 49 88 123l37 -29 q-61 -74 -111 -143.5t-97.5 -122.5t-93.5 -86t-101 -33q-35 0 -78 26.5t-90 58.5t-98.5 59.5t-102.5 31.5t-103 -26.5t-102 -116.5l-34 18q53 117 118.5 212t133 180t134 163t120 160t89 172t44.5 197q10 121 -29 186.5t-99.5 89t-129 11t-115.5 -45.5q-4 -4 -15.5 -11 t-27.5 -21q-35 -25 -62 -93t0 -149q20 -61 62.5 -83t87.5 -14.5t86 35t59 64.5l29 -19q-20 -63 -61 -112q-35 -41 -91.5 -76t-142.5 -35t-142.5 56.5t-63.5 140.5z" />
<glyph unicode="3" horiz-adv-x="1226" d="M84 1450l25 10q27 -25 63.5 -49.5t65.5 -40.5q39 8 77.5 23.5t84.5 30t102.5 24.5t130.5 10q80 0 155.5 -12t134 -44t93.5 -87t35 -144q0 -117 -84 -191.5t-248 -107.5l2 7q74 -10 144.5 -38t127 -78t91 -123t34.5 -173q0 -135 -62.5 -226t-153.5 -145.5t-191.5 -78 t-175.5 -23.5q-76 0 -157 21.5t-143.5 66.5t-95.5 111.5t-14 156.5q12 63 44 96t64 50q37 18 84 18q41 0 71 -29.5t30 -70.5t-30 -71t-71 -30t-71 31q-16 -12 -28.5 -34.5t-12.5 -57.5q0 -45 24.5 -86t67.5 -73t102.5 -50t130.5 -18q70 0 140.5 30.5t128 87t92.5 135 t35 175.5q0 195 -107.5 298t-312.5 103v33q174 -2 265 71.5t91 219.5q0 72 -41 122t-104.5 74.5t-141 22.5t-150.5 -31t-131 -86t-85 -145h-31q-12 61 -22.5 107t-21.5 83t-23.5 66.5t-26.5 58.5z" />
<glyph unicode="4" horiz-adv-x="1198" d="M53 569q174 133 346 295q74 70 156 151t165 173t165 192.5t155 208.5l80 -47l-30 -33q-23 -25 -41.5 -49t-31.5 -59t-20.5 -83t-7.5 -118v-1108v2q0 -25 15.5 -44t39.5 -23l54 -11v-16h-400v16l54 11q25 4 40 23.5t15 43.5v404h-690v2l-2 -2zM158 543h649v674z" />
<glyph unicode="5" horiz-adv-x="1077" d="M90 193l23 18q88 -94 203.5 -131t220 -4t176 143.5t71.5 310.5q0 133 -36.5 218.5t-93 130.5t-123 56t-128 -2t-108.5 -47t-62 -77h-45v616h705l10 -18q-55 -72 -147 -113q-39 -18 -90.5 -31.5t-116 -17.5t-142 3t-171.5 32v-383l2 2q49 70 124.5 101.5t158.5 28.5 t166 -37t147.5 -96t103.5 -151.5t35 -199.5q-4 -123 -46 -225.5t-110.5 -176t-160 -114.5t-195.5 -41t-175 31.5t-114 70.5q-51 45 -82 103z" />
<glyph unicode="6" horiz-adv-x="1198" d="M115 705q0 168 45 302t119.5 230t170 155.5t195.5 80t197.5 2t175.5 -77.5l-35 -41q-29 33 -91.5 58.5t-138 25.5t-155.5 -34t-145.5 -122t-107.5 -237.5t-42 -380.5q0 -211 45 -346.5t111.5 -204t145.5 -76.5t145.5 33t111.5 124t45 199q0 123 -32.5 198t-83 111.5 t-112 42t-118.5 -11t-103 -50.5t-67 -75l-29 17q27 53 72 98q39 39 99.5 72.5t146.5 44.5v-2q68 8 141.5 -11.5t135 -67.5t100.5 -127t39 -192q0 -137 -50.5 -225t-121 -139t-148.5 -71.5t-133 -20.5q-37 0 -90 5t-112.5 28.5t-117 68.5t-104.5 125t-75.5 199.5t-28.5 292.5 z" />
<glyph unicode="7" horiz-adv-x="1216" d="M49 1188q70 127 142.5 184.5t144.5 68.5t142.5 -10.5t136 -53t123 -59.5t106.5 -28q72 0 125 24.5t88 53.5q41 35 69 78l56 -29q-174 -190 -276.5 -391t-157 -389t-70.5 -352t-16 -283h-209q20 178 68 344t114.5 317.5t146.5 285.5t162 249q-47 -35 -100 -52.5 t-125 -10.5q-53 4 -106.5 30.5t-107.5 56t-106.5 54t-104.5 27t-103.5 -29.5t-100.5 -112z" />
<glyph unicode="8" horiz-adv-x="1300" d="M113 412q0 104 36.5 182t96 131t134.5 82t152 39q-170 35 -256 114.5t-96 202.5q-6 78 23.5 140.5t91 107.5t152 68.5t204.5 23.5q113 0 203 -23.5t151.5 -68.5t92 -107.5t24.5 -140.5q-10 -123 -96 -202.5t-256 -114.5q76 -10 151.5 -39t135 -82t96.5 -131t37 -182 q0 -127 -54.5 -211t-135 -135.5t-175 -72t-174.5 -20.5t-174 20.5t-175 72t-135 135.5t-54 211zM301 403q0 -88 32 -159.5t82 -122.5t112.5 -79t123.5 -28t124 28t113 79t81.5 122.5t31.5 159.5t-28.5 164t-76.5 131.5t-111.5 87t-133.5 31.5t-133 -31.5t-111.5 -87 t-77 -131t-28.5 -164.5zM360 1188q0 -78 24 -138.5t63.5 -101.5t93 -63.5t110.5 -22.5t110.5 22.5t93.5 63.5t63.5 101.5t23.5 138.5q0 61 -23.5 110.5t-62.5 84t-92 53t-113 18.5q-59 0 -112.5 -18.5t-92 -53t-62.5 -84t-24 -110.5z" />
<glyph unicode="9" horiz-adv-x="1198" d="M100 1028q0 137 50.5 225t121 139.5t148.5 72t133 20.5l-2 2q37 0 90 -5t112.5 -28.5t117 -69t104.5 -125t75.5 -199.5t28.5 -292q0 -168 -45 -302t-119.5 -230.5t-170 -156t-195.5 -79.5t-197.5 -2t-175.5 78l35 41q29 -33 91.5 -58.5t138 -25.5t155.5 33.5t145.5 121.5 t107.5 237.5t42 381.5q0 211 -45 346t-111.5 203.5t-145.5 77t-145.5 -32.5t-111.5 -125t-45 -199q0 -123 32.5 -197.5t83 -111.5t111.5 -42t118.5 11.5t103.5 50t67 74.5l28 -16q-27 -53 -71 -98q-39 -39 -98.5 -73t-145.5 -44q-68 -8 -141.5 11.5t-135 67.5t-100.5 126.5 t-39 191.5z" />
<glyph unicode=":" horiz-adv-x="360" d="M76 90q0 43 30.5 74t73.5 31t74 -31t31 -74t-31 -73.5t-74 -30.5t-73.5 30.5t-30.5 73.5zM76 1198q0 43 30.5 74t73.5 31t74 -31t31 -74t-31 -73.5t-74 -30.5t-73.5 30.5t-30.5 73.5z" />
<glyph unicode=";" horiz-adv-x="403" d="M66 1194q0 43 30.5 73.5t73.5 30.5t73.5 -30.5t30.5 -73.5t-30.5 -73.5t-73.5 -30.5t-73.5 30.5t-30.5 73.5zM68 88q0 43 30.5 74t75.5 31h12h-6q37 0 71 -31t56.5 -80t27.5 -112.5t-13.5 -130t-66.5 -131t-134 -114.5l-21 33q76 45 117 100.5t54.5 108.5t6 101.5 t-25.5 80.5q-31 -37 -78 -36q-45 0 -75.5 30.5t-30.5 75.5z" />
<glyph unicode="&#x3c;" horiz-adv-x="593" d="M63 594v37q63 16 131 50t123.5 88t94.5 131t45 179h41q-18 -193 -84 -306.5t-199 -160.5q133 -47 198.5 -160.5t84.5 -306.5h-41q-6 102 -45 179t-94.5 131.5t-123 88.5t-131.5 50z" />
<glyph unicode="=" horiz-adv-x="567" d="M31 299v33h504v-33h-504zM31 612v33h504v-33h-504z" />
<glyph unicode="&#x3e;" horiz-adv-x="593" d="M96 145q18 193 84 306.5t199 160.5q-133 47 -198.5 161t-84.5 306h41q6 -102 45 -179t94.5 -131t122 -88t131.5 -50v-37q-66 -16 -132 -50t-121.5 -88.5t-94.5 -131t-45 -179.5h-41z" />
<glyph unicode="?" horiz-adv-x="1173" d="M80 1032.5q-6 57.5 16.5 118.5t76.5 117.5t141 99.5t208 64h2q123 18 227.5 -6.5t180.5 -78t118 -127t41 -154.5t-51.5 -159t-158.5 -139q-98 -55 -161 -96t-93.5 -81t-32.5 -85t20 -105h-53q-35 86 -19.5 155t58.5 131.5t101.5 126t109.5 138.5q55 84 62.5 153 t-20.5 120t-81 86t-117.5 49t-133 9t-124 -32.5t-91.5 -79t-36 -127.5t44 -116.5t105.5 -53t124 0t97.5 43.5l23 -31q-61 -55 -134 -92q-61 -31 -142 -44.5t-173 21.5q-61 23 -95 70t-40 104.5zM483 90q0 43 31 74t74 31t73.5 -31t30.5 -74t-30.5 -73.5t-73.5 -30.5 t-74 30.5t-31 73.5z" />
<glyph unicode="@" horiz-adv-x="1714" d="M106 719q18 152 94 285t191 232t258.5 156.5t298.5 57.5v6q156 0 285 -57.5t218 -156.5t131 -232t24 -285q-8 -76 -35 -154q-31 -74 -82 -124t-110.5 -78.5t-124 -37.5t-121 -1t-101.5 31.5t-65 60.5q-84 -47 -152 -47q-98 0 -160.5 27.5t-98.5 75.5t-46 111.5t0 137.5 q8 74 45 137.5t92 111.5t125 75.5t146 27.5q43 0 93 -14t87 -68q25 16 59.5 30.5t71.5 14.5l6 -24q-18 -10 -25.5 -27.5t-11.5 -29.5q-18 -84 -40.5 -193t-63.5 -264q-18 -74 9 -113t74.5 -39t101.5 40t89 122q18 49 31.5 101.5t19.5 105.5q18 143 -10.5 268t-93 219.5 t-159.5 148.5t-212 54t-225.5 -54t-195.5 -148.5t-146.5 -219.5t-77.5 -268t10.5 -264t93 -212t159.5 -146.5t210 -67.5q86 -8 154.5 -7t130 14t122 42t130.5 74l28 -45q-66 -41 -129 -68t-132.5 -40t-145.5 -15t-166 4q-156 10 -285 68.5t-218 154.5t-131 225t-24 281z M644 599q3 -58 22.5 -101t55.5 -67.5t91 -24.5q45 0 86 32.5t59 102.5l7 24q29 133 50 225.5t36 149.5q-16 59 -52 79.5t-81 20.5q-113 0 -182.5 -87t-86.5 -226q-8 -70 -5 -128z" />
<glyph unicode="A" horiz-adv-x="1777" d="M4 10v17l43 4q63 6 116.5 40.5t86.5 90.5l565 993l-65 115q-31 53 -83.5 88t-115.5 41l-68 6v16h435v-16q-14 -4 -19.5 -17.5t0.5 -25.5l690 -1223q27 -45 69 -73.5t93 -36.5l25 -2v-17h-422v17l18 4q27 4 38 28.5t-3 46.5l-180 320h-776l-160 -283q-11 -19 -11 -38 q0 -17 8 -33q17 -36 58 -39l57 -6v-17h-399zM477 471h725l-360 639z" />
<glyph unicode="B" horiz-adv-x="1241" d="M68 6v17l53 10q25 4 40 23.5t15 43.5v1227q0 25 -15.5 44.5t-39.5 23.5l-53 10v16h53q88 0 149.5 5.5t118.5 11.5t125 11t172 5q176 0 257 -76q68 -63 68 -160q0 -19 -3 -40q-10 -66 -55.5 -119t-127.5 -86q-83 -33 -199 -38q-15 -1 -31 -1q-105 0 -235 29v-95l-2 -2 q114 32 228 31q40 0 78 -3q152 -15 270 -80q118 -66 184 -178q50 -85 50 -191q0 -34 -5 -70q-16 -115 -61 -193t-112.5 -124t-153.5 -65.5t-187 -19.5q-86 0 -145.5 5.5t-114.5 11.5t-117.5 11t-150.5 5h-53zM356 37q33 -8 88.5 -18.5t120 -10.5t131 15.5t126 56.5 t103.5 114.5t60 190.5l-2 2q6 39 6 75q0 92 -37 166q-51 102 -144 161t-214 68q-19 1 -39 1q-101 0 -199 -39v-782zM356 1006q76 -20 163 -30q34 -4 66 -4q50 0 96 10q75 15 125 61.5t50 138.5q0 76 -28.5 122t-73.5 72q-44 25 -100 33q-44 6 -89 6h-23q-56 -2 -104.5 -11 t-79.5 -15z" />
<glyph unicode="C" horiz-adv-x="1572" d="M74 715q0 152 59.5 285t161.5 232t239.5 156.5t294.5 57.5q109 0 207.5 -27.5t184.5 -77.5l346 119l14 -14l-231 -293h-25q-92 117 -220 184.5t-276 67.5l-2 -4q-117 0 -220 -54.5t-180 -148.5t-122 -219t-45 -268t45 -269.5t122 -219.5t180.5 -147.5t219.5 -54.5 q141 0 261 55.5t206 153.5l49 -51q-102 -92 -233 -143t-281 -51q-158 0 -295 57t-239 156.5t-161.5 232.5t-59.5 285z" />
<glyph unicode="D" horiz-adv-x="1669" d="M70 8v17l53 10q25 4 40 23.5t15 43.5v1227q0 25 -15.5 44.5t-39.5 23.5l-53 10v16h172l2 -2q47 0 131 9q85 10 189 18q93 7 196 7h26q118 -1 232.5 -21.5t218.5 -66.5t182 -130t123 -212q40 -113 40 -268q0 -21 -1 -42q-6 -182 -56 -310.5t-131 -212t-184.5 -130 t-217 -67t-228.5 -21.5h-24q-102 0 -192 8q-102 8 -183.5 17t-128.5 9h-166zM362 51q61 -10 162 -29q102 -18 216 -20h16q108 0 214 24q116 26 210 104.5t153.5 221t59.5 371.5q0 201 -50.5 335t-134.5 214t-192 114q-108 33 -222 36h-26q-100 0 -200 -20q-112 -22 -206 -54 v-1297z" />
<glyph unicode="E" horiz-adv-x="1406" d="M70 12v17l53 10q25 4 40 23.5t15 43.5v1227q0 25 -15.5 44.5t-39.5 23.5l-53 10v16h1130l82 -321l-25 -10q-16 20 -33.5 40.5t-37.5 41.5q-35 35 -79 75.5t-95 77.5q-70 35 -165 51q-90 16 -178 16h-11q-94 -1 -174.5 -18.5t-121.5 -48.5v-516q30 -4 80 -7q12 -1 23 0 q40 0 86 7q23 20 38 53t25 66q6 18 11.5 37.5t9.5 40.5h20q10 -84 27.5 -151.5t35 -120t33 -86t21.5 -48.5l-20 -10q-55 61 -102.5 101t-76.5 61q-55 17 -104 17q-10 0 -20 -1q-58 -4 -89 -12v-660q41 -31 129.5 -47t194.5 -17h13q99 0 201 14q108 16 187 46q53 39 101.5 79 t83.5 75l38.5 38.5t34.5 37.5l17 -9l-176 -307h-1114z" />
<glyph unicode="F" horiz-adv-x="1308" d="M70 8v17l53 10q25 4 40 23.5t15 43.5v1227q0 25 -15.5 44.5t-39.5 23.5l-53 10v16h1130l82 -317l-25 -10q-33 41 -71 82q-35 35 -79 75.5t-95 77.5q-70 35 -164 51q-89 16 -178 16h-10q-94 -1 -175.5 -18.5t-122.5 -48.5v-516q30 -4 80 -7q12 -1 23 0q40 0 86 7 q23 20 38 53t25 66q12 37 21 78h20q10 -84 26.5 -151.5t35 -120t34 -86t21.5 -48.5l-20 -10q-55 61 -102.5 101t-76.5 61q-55 17 -104 17q-10 0 -20 -1q-58 -4 -89 -12v-660q0 -25 15.5 -44t40.5 -23l53 -10v-17h-399z" />
<glyph unicode="G" horiz-adv-x="1630" d="M74 713q0 152 59.5 284.5t161.5 232t239.5 157t294.5 57.5q109 0 207.5 -27.5t184.5 -77.5l346 119l14 -14l-231 -293h-25q-92 117 -220 184.5t-276 67.5q-117 0 -220 -54.5t-180 -148.5t-122 -219t-45 -268t45 -269.5t122 -219.5t180.5 -147t219.5 -54q137 0 253 51 t202 143v371q0 25 -15.5 44t-39.5 23l-53 11l-2 -4v16h399v-16l-53 -11q-25 -4 -40.5 -23.5t-15.5 -43.5v-318q-74 -78 -154.5 -132t-162.5 -88t-163 -49t-155 -15q-158 0 -295 57t-239 156.5t-161.5 232.5t-59.5 285z" />
<glyph unicode="H" d="M70 6v17l53 10q25 4 40 23.5t15 43.5v1227q0 25 -15.5 44.5t-39.5 23.5l-53 10v16h399v-16l-53 -10q-25 -4 -40.5 -23.5t-15.5 -44.5v-420h900v420q0 25 -15.5 44.5t-40.5 23.5l-53 10v16h399v-16l-53 -10q-25 -4 -40 -23.5t-15 -44.5v-1227q0 -25 15.5 -44t39.5 -23 l53 -10v-17h-399v17l53 10q25 4 40.5 23.5t15.5 43.5v764h-900v-764q0 -25 15.5 -44t40.5 -23l53 -10v-17h-399z" />
<glyph unicode="I" horiz-adv-x="540" d="M70 6v17l53 10q25 4 40 23.5t15 43.5v1227q0 25 -15.5 44.5t-39.5 23.5l-53 10v16h399v-16l-53 -10q-25 -4 -40.5 -23.5t-15.5 -44.5v-1227q0 -25 15.5 -44t40.5 -23l53 -10v-17h-399zM168 1655q0 41 29.5 70.5t70.5 29.5t71 -29.5t30 -70.5t-30 -71t-71 -30t-70.5 30 t-29.5 71z" />
<glyph unicode="J" horiz-adv-x="919" d="M33 233.5q0 61.5 26 104.5q8 16 33 34.5t55 18.5q41 0 71 -29.5t30 -70.5t-30 -71t-71 -30q-12 0 -18 3q-10 -29 1 -61t39 -58.5t71 -43t98 -16.5q74 0 119 35t69.5 92.5t32.5 133t8 159.5v881q0 31 -20.5 53.5t-50.5 26.5l-138 12v16l500 -4v-16l-53 -10 q-25 -4 -40 -23.5t-15 -44.5v-895q0 -78 -19.5 -159t-64.5 -147.5t-122 -108.5t-190 -42q-115 0 -184.5 41t-103 99.5t-33.5 120z" />
<glyph unicode="K" horiz-adv-x="1222" d="M68 6v17l53 10q25 4 40 23.5t15 43.5v1227q0 25 -15.5 44.5t-39.5 23.5l-53 10v16h399v-16l-53 -10q-25 -4 -40.5 -23.5t-15.5 -44.5v-229q24 -5 47 -4q56 0 107 26q72 38 139 150q39 61 79 96t77 51.5t66.5 19.5t48.5 1q51 -4 91 -34t56 -71q10 -23 10 -52.5t-12 -56 t-36.5 -44t-61.5 -17.5q-39 0 -65.5 27t-26.5 65q0 39 26.5 66t65.5 27q25 0 47 -13q-6 25 -38 47q-31 22 -75 22h-4q-47 -1 -101.5 -36t-105.5 -123q-27 -47 -59.5 -85t-72.5 -63.5t-89 -34.5q-23 -4 -48 -4q-28 0 -58 5v-45q43 4 84 3q46 0 90 -4q82 -9 143 -57.5 t97 -146.5t36 -266q0 -178 16.5 -284.5t44 -162t64.5 -72t78 -16.5q37 0 59.5 15.5t35.5 38t18.5 48t9.5 48.5l49 -17q-6 -29 -19.5 -58.5t-35 -54t-51 -41t-66.5 -16.5q-55 0 -108.5 20.5t-95.5 82t-67.5 174.5t-25.5 297v108q0 127 -31 198t-82 103q-52 31 -116 33h-18 q-56 0 -116 -10v-881q0 -25 15.5 -44t40.5 -23l53 -10v-17h-399z" />
<glyph unicode="L" horiz-adv-x="1380" d="M70 8v17l53 10q25 4 40 23.5t15 43.5v1227q0 25 -15.5 44.5t-39.5 23.5l-53 10v16h399v-16l-53 -10q-25 -4 -40.5 -23.5t-15.5 -44.5v-1227q27 -20 76 -34.5t112.5 -21.5t135.5 -8h18q64 0 126 6q72 7 138 20.5t119 33.5q53 39 101.5 79t83.5 75q41 39 73 76l17 -13 l-176 -307h-1114z" />
<glyph unicode="M" horiz-adv-x="2316" d="M4 8v17l19 2q76 8 136 51t93 110l498 1033l-70 86q-68 80 -172 90l-105 10v16h383l422 -510l439 510h229v-16l-203 -21l-6 -8l475 -1218l4 2q23 -53 67 -89t101 -46v-17h-422v17l31 6q25 4 37 26.5t2 44.5l-434 1113l-393 -459l-353 426l-503 -1043q-8 -16 -8 -33 q0 -18 10 -36q18 -34 57 -39l65 -8v-17h-399z" />
<glyph unicode="N" horiz-adv-x="1464" d="M43 8v17l47 6q55 6 93 48t38 99v1071q0 47 -28.5 85t-75.5 50l-72 21v16h313l850 -1116v948q0 57 -37.5 99.5t-93.5 48.5l-47 6v16l397 4v-16l-47 -6q-55 -6 -93 -48t-38 -100v-1247h-55l-930 1221v-1053q0 -57 38 -99t93 -48l47 -6v-17h-399z" />
<glyph unicode="O" horiz-adv-x="1646" d="M74 713q0 152 59.5 284.5t160.5 232t237 157t292 57.5t292 -57.5t237.5 -157t161 -232.5t59.5 -284q0 -152 -59.5 -285t-161 -232.5t-237.5 -156.5t-292 -57t-292 57t-237 156.5t-160.5 232.5t-59.5 285zM262 713q0 -143 44 -269.5t121 -219.5t178 -147t218 -54t218.5 54 t178 147t120.5 219t44 270q0 143 -44 268t-120.5 219t-178 148.5t-218.5 54.5t-218 -54.5t-178 -148.5t-121 -219t-44 -268z" />
<glyph unicode="P" horiz-adv-x="1173" d="M72 6v17l53 10q25 4 40 23.5t15 43.5v1227q0 25 -15 44.5t-40 23.5l-53 10v16h53q88 0 156.5 5.5t135 11.5t141.5 11t179 5q203 0 309 -72q93 -63 93 -181q0 -16 -2 -32q-10 -94 -77 -161q-66 -66 -172 -94q-62 -16 -134 -16q-51 0 -108 8q-136 20 -284 100v-906 q0 -25 15.5 -44t40.5 -23l53 -10v-17h-399zM362 1053q29 -25 83.5 -50.5t118.5 -40.5q62 -16 130 -17h6q64 1 117 23q55 24 91 74t40 140v2v9q0 72 -30 115q-32 46 -86 71.5t-122 32.5q-47 5 -93 5q-19 0 -39 -1q-66 -3 -123.5 -12t-92.5 -15v-336z" />
<glyph unicode="Q" horiz-adv-x="1648" d="M74 715q0 152 59.5 285t160.5 232t237.5 156.5t291.5 57.5q156 0 292 -57.5t237.5 -156.5t161 -232t59.5 -285t-59.5 -285t-161 -232.5t-237.5 -156.5t-292 -57t-292 57t-237 156.5t-160.5 232.5t-59.5 285zM262 715q0 -143 44 -269.5t121 -219.5t178.5 -147t217.5 -54 q117 0 218.5 54t178 147t120.5 219t44 270q0 143 -44 268t-120.5 219t-178 148.5t-218.5 54.5t-218 -54.5t-178 -148.5t-121 -219t-44 -268zM379 -147q133 59 247 70q44 4 86 4q65 0 124 -10q98 -17 181 -55t156.5 -74t138.5 -62q57 -22 111 -22q8 0 17 1q61 4 121.5 49 t121.5 150l31 -19q-94 -135 -181 -196.5t-168 -73.5q-25 -4 -50 -4q-55 0 -108 19q-77 26 -152.5 67t-151.5 87t-157 74q-72 24 -148 24h-17q-85 -3 -180 -60z" />
<glyph unicode="R" horiz-adv-x="1380" d="M70 10v17l53 10q25 4 40 23.5t15 43.5v1227q0 25 -15.5 44.5t-39.5 23.5l-53 10v16h204q53 0 127 9.5t155 16.5q57 5 113 5q24 0 48 -1q80 -3 148.5 -28.5t117.5 -78t68 -146.5q8 -41 8 -78q-1 -56 -19 -102q-30 -76 -93.5 -128t-151.5 -81t-183 -39q59 -23 111.5 -67.5 t97.5 -122.5l-2 6q33 -59 62.5 -124t61.5 -126t70 -117.5t89 -97.5q52 -41 118 -65q61 -23 143 -23h13v-25q-38 -4 -75 -4q-74 0 -138 16q-96 24 -176 80t-144.5 142t-117.5 196q-29 61 -53.5 116.5t-50 101t-55 75t-68.5 37.5q-35 0 -70 3t-68 7v-678q0 -25 15.5 -44 t40.5 -23l53 -10v-17h-399zM358 821q44 -12 104 -13h10q54 0 110 10q60 11 118 38t98 73q40 47 60 111q12 39 11 86q0 32 -5 68q-18 119 -80.5 167t-141.5 55q-21 2 -42 2q-58 0 -114 -14q-78 -20 -128 -38v-545z" />
<glyph unicode="S" horiz-adv-x="1222" d="M55 12l72 365h27q27 -84 79 -150.5t118.5 -113.5t141 -73t148.5 -28h13q59 0 112 16q59 18 103 56.5t71 100t27 147.5q0 113 -58.5 184.5t-147.5 121.5t-191.5 89t-191.5 87t-147.5 113.5t-58.5 168.5q0 106 36 175.5t96 110.5q60 42 136 56q56 11 116 10q20 0 41 -1 q81 -5 159 -26.5t139 -52.5l266 92l15 -14l-232 -293h-24q-47 94 -111 153q-63 58 -131 86q-63 27 -125 27h-9q-66 -2 -117.5 -29.5t-84.5 -80t-33 -125.5q0 -115 95.5 -189.5t283.5 -144.5h-2q86 -31 167 -73t144.5 -98t102.5 -132t39 -174q0 -104 -42 -179t-110.5 -123 t-159 -72t-184.5 -24q-129 0 -250 37t-205 107l-114 -113z" />
<glyph unicode="T" horiz-adv-x="1294" d="M-2 1452l18 6q12 -10 33 -18q16 -8 44 -13.5t69 -5.5h964q41 0 69 5.5t44 13.5q20 8 33 18l18 -6l-108 -283l-21 2q-8 70 -57 123q-41 45 -127 76q-58 21 -148 21q-43 0 -94 -5v-1288q0 -25 15.5 -44t40.5 -23l53 -11v-16h-400v16l54 11q25 4 40 23.5t15 43.5v1288 q-49 4 -91 4q-92 0 -151 -20q-86 -30 -127 -76q-49 -53 -57 -123l-21 -2z" />
<glyph unicode="U" horiz-adv-x="1568" d="M55 1405v16h400v-16l-54 -10q-25 -4 -40 -23.5t-15 -44.5v-860q0 -223 131 -331.5t361 -108.5q145 0 238 37.5t146.5 100t73 141.5t19.5 161v6v776q0 59 -38 102.5t-97 49.5l-41 4l-2 16h399v-16l-41 -4q-59 -6 -97 -49t-38 -103v-776v-6q0 -43 -6 -96.5t-24.5 -108.5 t-53.5 -107.5t-94.5 -94.5t-145.5 -66.5t-205 -24.5q-207 0 -336.5 40t-203.5 108.5t-100.5 159t-26.5 190.5v860q0 25 -15.5 44.5t-39.5 23.5z" />
<glyph unicode="V" horiz-adv-x="1488" d="M8 1405v16h400v-16l-23 -4q-35 -6 -50.5 -36t-0.5 -60l495 -1080l398 1059q5 15 5 29q0 23 -14 45q-22 35 -63 39l-70 8l5 16h399v-16l-27 -2q-70 -8 -124 -50t-78 -108l-465 -1237h-45l-594 1292q-18 41 -53 68t-78 35z" />
<glyph unicode="W" horiz-adv-x="2162" d="M6 1403v16h400v-16l-23 -4q-35 -6 -50.5 -36t-0.5 -60l493 -1076q31 76 53.5 172.5t35.5 202.5q12 106 14 216v42q0 87 -6 169q-8 101 -29 187.5t-51 147.5l100 119q90 -76 166 -176.5t138.5 -211t109.5 -227t82 -225t56.5 -204t29.5 -163.5l379 1008q5 15 5 29 q0 23 -14 45q-22 35 -63 39l-70 8l2 12h400v-16l-27 -2q-70 -8 -124 -50t-79 -108l-465 -1237h-45q-41 246 -108 479q-29 98 -66 204t-82 207t-100 191.5t-121 161.5q10 -96 24 -216q9 -79 8 -172q0 -49 -2 -101q-7 -152 -47 -338.5t-136 -413.5h-45l-594 1292 q-18 41 -53 68t-78 35z" />
<glyph unicode="X" horiz-adv-x="1550" d="M8 6v17l21 2q76 8 140 47t107 102l398 584l-387 561q-45 68 -127 78l-62 8v16h424v-16q-14 -4 -19 -17.5t5 -25.5l287 -424l266 389q16 23 5 45.5t-38 26.5l-51 6v16h399v-16l-53 -4q-78 -8 -146.5 -48t-113.5 -106l-240 -348l535 -776q29 -41 77 -65.5t99 -32.5l4 -5 v-16h-422v16l10 3q16 4 23.5 19t-2.5 30l-445 645l-397 -586q-14 -19 -14 -38q1 -13 7 -27q16 -34 52 -37l58 -6v-17h-400z" />
<glyph unicode="Y" horiz-adv-x="1406" d="M0 1405v16h492v-16l-46 -4q-39 -4 -56 -38q-8 -17 -8 -33q0 -18 9 -36l324 -610h295q49 145 84.5 288.5t58.5 270.5q2 14 2 26q0 44 -25 79q-34 47 -94 53l-35 4l5 18h399v-16l-31 -4q-66 -8 -113 -52t-57 -110q-29 -166 -81 -360.5t-130 -380.5q-37 -88 -85 -180.5 t-106.5 -167t-127 -121.5t-144.5 -47q-111 0 -165 44t-61 98q-1 10 -1 19q0 43 27 79q32 44 94 44q45 0 75.5 -30.5t30.5 -73.5t-30.5 -74t-75.5 -31h-12q40 -28 111 -28h5q113 0 224 135q100 123 194 350q12 29 24.5 59.5t22.5 61.5h-458l-340 645q-27 47 -72 79t-98 40z " />
<glyph unicode="Z" horiz-adv-x="1529" d="M14 8v17q61 10 112.5 44.5t82.5 88.5l709 1214q-59 12 -135 16q-38 2 -77 2q-38 0 -78 -2q-79 -4 -155 -15t-137 -32l-27 -268h-20l-166 326l14 21h1190v-15q-94 -10 -174 -60.5t-127 -132.5l-664 -1140q74 -20 192 -28q87 -6 179 -7q33 0 66 1q127 3 243.5 18.5 t186.5 41.5q53 39 101 79t83 75q41 39 74 76l18 -13l-176 -307h-1315z" />
<glyph unicode="[" horiz-adv-x="385" d="M143 -412v1899h246v-33h-147v-1833h147v-33h-246z" />
<glyph unicode="\" horiz-adv-x="473" d="M94 1298h33l272 -1415h-32z" />
<glyph unicode="]" horiz-adv-x="385" d="M-4 -379h147v1833h-147v33h246v-1899h-246v33z" />
<glyph unicode="^" horiz-adv-x="1021" d="M43 862v41q102 6 179 45t131.5 94.5t88 122t50.5 131.5h36q16 -66 50 -132t88.5 -121.5t131 -94.5t179.5 -45v-41q-193 18 -306.5 84t-160.5 199q-47 -133 -160.5 -198.5t-306.5 -84.5z" />
<glyph unicode="_" horiz-adv-x="966" d="M20 0v33h926v-33h-926z" />
<glyph unicode="a" horiz-adv-x="1464" d="M0 6v17l33 4q68 8 122 48t81 103l401 987q13 33 13 66q0 8 -1 16q-4 41 -24.5 75t-55 56.5t-77.5 26.5v16h399v-16l-119 -21l514 -1224l-4 -2q23 -53 69 -89t105 -46v-17h-422v17l31 6q25 4 37 26.5t2 44.5l-268 639h-326l-236 -577q-8 -19 -8 -37q0 -25 14 -49 q24 -41 72 -47l47 -6v-17h-399zM524 784h289l-147 351z" />
<glyph unicode="b" horiz-adv-x="1206" d="M74 6v17l53 10q25 4 40 23.5t15 43.5v1227q0 25 -15 44.5t-40 23.5l-53 10v16h155q137 -1 262 15q99 12 208 13q28 0 57 -1q70 -2 121 -28.5t79 -70.5q29 -43 31 -105q0 -4 1 -9q0 -58 -25 -125q-29 -78 -103 -123t-163 -57q-30 -4 -61 -4q-60 0 -120 16q-92 24 -156 84 v-410l5 -2q100 84 204.5 126t200.5 48l34 2q77 0 142 -25q80 -30 130 -90.5t62 -151.5q3 -23 3 -48q0 -73 -27 -160q-35 -106 -92 -169.5t-126 -98.5q-70 -35 -144 -45q-68 -9 -134 -9h-13q-73 1 -136 7t-109 6h-286zM365 1067q39 -45 103 -71q56 -23 113 -23h17 q66 4 121 45t78 133q9 37 9 69q0 54 -24 90q-38 58 -108 82q-55 19 -121 18q-17 0 -34 -1q-85 -6 -154 -37v-305zM367 61q84 -46 180 -46h4q98 1 183 48.5t144.5 141.5t65.5 237h4v22q0 82 -26 134q-30 60 -82 87.5t-118 28.5h-6q-62 0 -126 -18q-66 -20 -125 -57t-98 -82 v-496z" />
<glyph unicode="c" horiz-adv-x="1435" d="M78 719q0 154 55 288t149.5 233t221.5 157.5t272 58.5q47 0 90 -8t84 -25q14 -4 41 -12t55.5 -8t57.5 13.5t49 49.5l18 -6q-10 -47 -15 -104.5t-7 -108.5q-2 -59 -2 -121h-14q-61 133 -153.5 215t-215.5 82q-119 0 -212 -55t-157.5 -150.5t-98.5 -222.5t-34 -272t45 -272 t123 -222.5t181.5 -150.5t222.5 -55q86 0 165.5 30.5t147 85t121 130t88.5 167.5l53 -30q-43 -94 -107.5 -172t-146.5 -134.5t-178 -87t-201 -30.5q-145 0 -272 58t-221.5 157.5t-149.5 233.5t-55 288z" />
<glyph unicode="d" horiz-adv-x="1665" d="M66 1405v16h172l2 -2q47 0 131 9q85 10 189 18q93 7 196 7h26q118 -1 232 -21.5t218.5 -66.5t182.5 -130t123 -212q40 -113 40 -268q0 -21 -1 -42q-6 -182 -56.5 -310.5t-131 -212.5t-184 -130t-217.5 -66.5t-228 -21.5h-24q-100 0 -192 8q-102 8 -183.5 17t-129.5 9h-57 v1321q0 25 -15.5 44.5t-39.5 23.5zM358 49q61 -10 162 -29q102 -18 216 -20h16q108 0 214 24q116 26 210 104.5t153.5 221t59.5 371.5q0 201 -50.5 335t-134.5 214t-192 114q-108 33 -222 36h-26q-100 0 -200 -20q-112 -22 -206 -54v-1297z" />
<glyph unicode="e" horiz-adv-x="1579" d="M72 717q0 152 59 285t160.5 232t238 156.5t291.5 57.5q154 0 287 -56.5t222 -154.5t120 -229q12 -51 12 -104q0 -85 -30 -177h-189h-983v-12q0 -143 44 -269.5t121 -219.5t178.5 -147t217.5 -54q121 0 212 22.5t166 62.5t138.5 97t126.5 127l45 -49 q-78 -72 -151.5 -128.5t-154.5 -94t-174 -57t-208 -19.5q-156 0 -292 57t-237.5 156.5t-160.5 232.5t-59 285zM266 768h996q23 82 23 158q0 47 -9 92q-23 117 -86.5 203t-159.5 135t-207 49l2 -2q-111 0 -209 -49t-172.5 -135t-122 -202t-55.5 -249z" />
<glyph unicode="f" horiz-adv-x="1308" d="M70 6v17l53 10q25 4 40 23.5t15 43.5v1227q0 25 -15.5 44.5t-39.5 23.5l-53 10v16h1130l80 -319l-25 -10q-33 41 -71 82q-35 35 -79 75.5t-95 77.5q-70 35 -164 51q-89 16 -178 16h-10q-95 -1 -176 -18.5t-122 -48.5v-409q43 25 85 30q22 3 43 3q19 0 38 -2 q39 -5 76 -19.5t72 -30.5q51 -23 96 -39t82 -18h8q32 0 58 14q28 16 47 59l22 -10q-47 -86 -97 -115q-44 -26 -92 -26h-12q-55 4 -110 30.5t-109.5 52t-106.5 39.5q-21 5 -41 5q-30 0 -59 -12v-779q0 -25 15.5 -44t40.5 -23l53 -10v-17h-399z" />
<glyph unicode="g" horiz-adv-x="1632" d="M72 713q0 152 59 284.5t161.5 232t240 157t294.5 57.5q111 0 210.5 -27.5t185.5 -79.5q37 23 54 54.5t28 81.5h20l98 -369l-18 -8q-45 57 -113.5 112.5t-146.5 98.5t-160 69.5t-156 26.5q-117 0 -220 -54.5t-180 -148.5t-122 -219t-45 -268t45 -269.5t122 -219.5 t180.5 -147t219.5 -54q139 0 256 53t203 145v367q0 25 -15.5 44t-39.5 23l-53 11v16l397 -2v-16l-53 -11q-25 -4 -40.5 -23.5t-15.5 -43.5v-582h-38l-109 139q-123 -88 -250 -124.5t-244 -36.5q-158 0 -295 57t-239.5 156.5t-161.5 232.5t-59 285z" />
<glyph unicode="h" d="M68 6v17l53 10q25 4 40 23.5t15 43.5v1227q0 25 -15.5 44.5t-39.5 23.5l-53 10v16h399v-16l-53 -10q-25 -4 -40.5 -23.5t-15.5 -44.5v-424q63 39 163 45q13 1 26 1q93 0 225 -36q204 -53 318 -59q23 -1 44 -1q82 0 126 19v455q0 25 -15.5 44.5t-40.5 23.5l-53 10v16h399 v-16l-53 -10h-4q-25 -4 -40 -23.5t-15 -44.5v-1227q0 -25 15 -44t40 -23l53 -10v-17h-399v17l53 10q25 4 40 23.5t15 43.5v717q-69 -35 -191 -38h-13q-120 0 -308 50q-2 0 -17 5.5t-33.5 9.5t-34 9t-17.5 5q-87 24 -151 24q-9 0 -18 -1q-69 -4 -114 -31v-750q0 -25 15.5 -44 t40.5 -23l53 -10v-17h-399z" />
<glyph unicode="i" horiz-adv-x="536" d="M72 6v17l53 10q25 4 40 23.5t15 43.5v1227q0 25 -15 44.5t-40 23.5l-53 10v16h290v-1321q0 -25 15.5 -44t40.5 -23l53 -10v-17h-399zM170 1655q0 41 29.5 70.5t70.5 29.5t71 -29.5t30 -70.5t-30 -71t-71 -30t-70.5 30t-29.5 71z" />
<glyph unicode="j" horiz-adv-x="919" d="M35 231.5q0 61.5 26 104.5q8 16 32 34.5t54 18.5q41 0 71 -29.5t30 -70.5t-30 -71t-71 -30q-12 0 -18 2q-10 -29 1 -60.5t39 -58t71 -43t98 -16.5q74 0 119 35t69.5 92.5t32.5 133t8 159.5v881q0 31 -20.5 53.5t-50.5 26.5l-138 12v16l502 -4v-16l-53 -10 q-25 -4 -40 -23.5t-15 -44.5v-895q0 -78 -19.5 -159t-64.5 -147.5t-122 -108.5t-190 -42q-115 0 -184.5 41t-103 99.5t-33.5 120zM559 1649q0 41 29.5 70.5t70.5 29.5t71 -29.5t30 -70.5t-30 -71t-71 -30t-70.5 30t-29.5 71z" />
<glyph unicode="k" horiz-adv-x="1384" d="M74 6v17l53 10q25 4 40 23.5t15 43.5v1227q0 25 -15 44.5t-40 23.5l-53 10v16h399v-16l-53 -10q-25 -4 -40 -23.5t-15 -44.5v-385q21 -3 42 -3q47 1 87 17q57 24 106 65.5t92 97t85 108.5t87 98q46 45 98 69q43 19 93 19q11 0 21 -1q62 -5 141 -52l-21 -29 q-60 49 -108 50h-3q-47 1 -88 -29q-43 -30 -85 -86t-87 -119q-37 -51 -77.5 -100.5t-95 -84t-124.5 -50.5q-35 -8 -76 -7q-42 0 -90 8v-122q76 15 145 14q49 0 95 -7q109 -18 197 -73t158.5 -145.5t127.5 -208.5q37 -78 67 -143.5t59.5 -107.5t63.5 -56q12 -5 25 -5 q25 0 54 17l22 -21q-56 -45 -110 -49q-7 -1 -14 -1q-46 1 -88 25q-48 28 -92 79t-81 116q-53 94 -98 196.5t-109 184.5t-162 127q-70 32 -171 32q-40 0 -86 -5v-660q0 -25 15 -44t40 -23l53 -10v-17h-399z" />
<glyph unicode="l" horiz-adv-x="1300" d="M68 8v17l53 10q25 4 40 23.5t15 43.5v1227q0 25 -15.5 44.5t-39.5 23.5l-53 10v16h399v-16l-53 -10q-25 -4 -40.5 -23.5t-15.5 -44.5v-1227q35 -27 120 -42q84 -15 192 -20q45 -2 91 -2q65 0 132 4q115 7 207 26q0 41 -4 83t-9 76l-12 78l25 10l184 -288l-10 -19h-1206z " />
<glyph unicode="m" horiz-adv-x="1759" d="M43 1405v16h379l532 -415l502 415h232v-16l-54 -10h2q-25 -4 -40 -23.5t-15 -44.5v-1227q0 -25 15.5 -44t39.5 -23l54 -10v-17h-400v17l53 10q25 4 40.5 23.5t15.5 43.5v1215l-553 -461l-578 453v-1129q0 -57 38 -99t95 -48l43 -4v-17h-399v17l43 4q57 6 95 48t38 99 v1092q0 51 -33.5 88t-85.5 41z" />
<glyph unicode="n" horiz-adv-x="1464" d="M43 6v17l47 6q55 6 93 48t38 99v1071q0 47 -28.5 85t-75.5 50l-72 21v16h313l850 -1116v948q0 57 -37.5 99.5t-93.5 48.5l-47 6v16l397 4v-16l-47 -6q-55 -6 -93 -48t-38 -100v-1247h-55l-930 1221v-1053q0 -57 38 -99t93 -48l47 -6v-17h-399z" />
<glyph unicode="o" horiz-adv-x="1646" d="M74 713q0 152 59.5 284.5t160.5 232t237 157t292 57.5t292 -57.5t237.5 -157t161 -232.5t59.5 -284q0 -152 -59.5 -285t-161 -232.5t-237.5 -156.5t-292 -57t-292 57t-237 156.5t-160.5 232.5t-59.5 285zM262 713q0 -143 44 -269.5t121 -219.5t178 -147t218 -54t218.5 54 t178 147t120.5 219t44 270q0 143 -44 268t-120.5 219t-178 148.5t-218.5 54.5t-218 -54.5t-178 -148.5t-121 -219t-44 -268z" />
<glyph unicode="p" horiz-adv-x="1114" d="M70 6v17l53 10q25 4 40 23.5t15 43.5v1227q0 25 -15.5 44.5t-39.5 23.5l-53 10v16h53q88 0 154.5 5.5t122 11.5t105.5 11t109 5h2q117 0 215.5 -29.5t160 -84t78.5 -130.5q5 -21 5 -44q0 -58 -31 -126q-33 -72 -86 -107.5t-116 -44.5q-26 -4 -53 -4q-39 0 -81 8 q-69 13 -134.5 39.5t-121 63.5t-92.5 74v-969q0 -25 15.5 -44t40.5 -23l53 -10v-17h-399zM365 1135q45 -76 127.5 -121t169.5 -50q10 -1 19 -1q75 0 135 37q69 42 83 141v-2q3 22 3 43q0 41 -14 75q-20 50 -61 82.5t-97 50t-120 22.5q-28 2 -57 2l-69 -3q-64 -6 -119 -20 v-256z" />
<glyph unicode="q" horiz-adv-x="1847" d="M74 713q0 152 59.5 284.5t160.5 232t237.5 157t291.5 57.5q156 0 292 -57.5t237.5 -157t161 -232.5t59.5 -284q0 -131 -45 -248t-123 -211t-186.5 -159.5t-233.5 -92.5q76 -80 161 -139.5t188 -71.5q20 -2 42 -2q85 0 185 37q125 47 278 180l35 -39q-209 -154 -372 -205 q-120 -37 -220 -37q-36 0 -70 5q-127 18 -224 88.5t-175 163.5q-154 2 -289 60t-234.5 157.5t-157.5 231.5t-58 282zM262 717q0 -137 41 -260v4q59 23 113 23q38 0 74 -12q85 -28 162 -93.5t148.5 -156.5t147.5 -177q94 27 174 88.5t138.5 150.5t91 199.5t32.5 233.5 q0 143 -44 268t-120.5 219t-178 148.5t-218.5 54.5t-218 -54.5t-178 -148.5t-121 -219t-44 -268zM315 420v2q63 -166 186.5 -272.5t276.5 -122.5q-63 80 -118.5 159.5t-109.5 139t-112 88.5q-32 16 -67 16q-27 0 -56 -10z" />
<glyph unicode="r" horiz-adv-x="1525" d="M72 8v17l53 10q25 4 40 23.5t15 43.5v1227q0 25 -15 44.5t-40 23.5l-53 10v16h53q88 0 154.5 5.5t122 11.5t105.5 11t109 5q117 0 215.5 -29.5t160 -84t78.5 -130.5q5 -21 5 -44q0 -58 -31 -126q-33 -72 -86 -108q-52 -35 -116 -44q-26 -4 -53 -4q-39 0 -81 8 q-70 13 -135 40t-120.5 63.5t-92.5 73.5v-100q188 -61 304 -153.5t187 -196t113 -208t86 -187.5t105.5 -135t169.5 -52q47 0 80 25.5t45 61.5q7 20 7 40q0 17 -5 35q-10 39 -49 65l41 39l2 6q31 -31 46 -85q7 -25 7 -50q0 -28 -9 -57q-17 -53 -75.5 -93t-175.5 -40 q-82 0 -145.5 21.5t-112.5 60t-88 94t-70 123.5q-41 90 -71.5 190t-75.5 190.5t-118 159t-196 97.5v-820q0 -25 15.5 -44t40.5 -23l53 -10v-17h-399zM362 1139q45 -76 128 -121t169 -50q9 -1 18 -1q75 0 137 38q69 42 83 140q3 22 3 43q0 42 -14 75q-20 50 -61 82.5t-97 50 t-120 22.5q-29 2 -57 2l-69 -3q-64 -6 -120 -20v-258z" />
<glyph unicode="s" horiz-adv-x="1249" d="M55 399l17 13q72 -100 168 -178t198.5 -128.5t201.5 -65.5q39 -6 74 -6q56 0 104 14q79 24 127 93.5t48 190.5q0 84 -33.5 144.5t-90 105.5t-128 79.5t-145.5 65.5t-145.5 63.5t-128 74.5t-90 97.5t-33.5 133.5q0 106 36.5 175.5t96.5 110.5q59 40 136 56q58 12 118 12 q19 0 39 -1q80 -5 157.5 -27.5t139.5 -53.5l266 92l14 -14l-231 -293h-25q-45 94 -108.5 153.5t-131.5 87.5q-63 26 -124 25h-10q-66 -2 -118.5 -30.5t-85 -81t-32.5 -123.5q0 -115 95.5 -189.5t283.5 -144.5q86 -31 167 -73t144.5 -98t102 -132t38.5 -174q0 -102 -41 -177 t-110 -121q-68 -47 -155 -69q-83 -22 -173 -21h-8q-94 1 -187.5 22.5t-170.5 60.5q-39 -8 -68 -17.5t-47 -19.5q-23 -10 -37 -21h-31z" />
<glyph unicode="t" horiz-adv-x="1595" d="M20 1401l11 20h1534l14 -20l-149 -338l-19 6l-51 326h-469v-1295q0 -25 15.5 -44t39.5 -23l53 -10v-17h-399v17l53 10q25 4 40.5 23.5t15.5 43.5v1295h-469l-52 -326l-18 -6z" />
<glyph unicode="u" horiz-adv-x="1568" d="M55 1405v16h400v-16l-54 -10q-25 -4 -40 -23.5t-15 -44.5v-860q0 -223 131 -331.5t361 -108.5q145 0 238 37.5t146.5 100t73 141.5t19.5 161v6v776q0 59 -38 102.5t-97 49.5l-41 4l-2 16h399v-16l-41 -4q-59 -6 -97 -49t-38 -103v-776v-6q0 -43 -6 -96.5t-24.5 -108.5 t-53.5 -107.5t-94.5 -94.5t-145.5 -66.5t-205 -24.5q-207 0 -336.5 40t-203.5 108.5t-100.5 159t-26.5 190.5v860q0 25 -15.5 44.5t-39.5 23.5z" />
<glyph unicode="v" horiz-adv-x="1370" d="M4 1405v16h399v-16l-22 -4q-35 -6 -50.5 -36t-0.5 -60l495 -1082q49 104 101.5 183t99.5 145q49 72 95 141.5t81 147.5q56 130 62 252q1 12 1 24q0 107 -44 184q-68 117 -226 136l6 45q182 -23 261 -160v4q49 -89 49 -211v-19q-4 -134 -66 -272q-37 -80 -83 -151.5 t-97 -143.5q-66 -94 -141.5 -218t-132.5 -302h-46l-593 1292q-18 41 -53.5 68t-78.5 35z" />
<glyph unicode="w" horiz-adv-x="2162" d="M12 1409v16h400v-16l-23 -4q-35 -6 -50 -36t-1 -60l496 -1080l223 590l-101 217l-6 6q-31 68 -46 146q-8 42 -8 80q0 32 6 64q13 66 62.5 109.5t145.5 43.5q88 0 121 -42t33 -103.5t-22.5 -131t-43.5 -125.5l-39 -104l346 -754l398 1059q5 15 5 29q0 23 -14 45 q-22 35 -63 39l-70 8l8 20h400v-16l-27 -2q-70 -8 -124 -50t-79 -108l-464 -1237h-45l-347 754l-284 -754h-45l-594 1293q-18 41 -53 67.5t-78 34.5zM1040 1321q8 -59 36 -134t65 -153l28 78l7 18q20 51 34.5 107.5t14.5 104t-21.5 79t-75.5 31.5h-2q-58 0 -76 -36 q-13 -25 -12 -60q-1 -16 2 -35z" />
<glyph unicode="x" horiz-adv-x="1550" d="M8 6v17l21 2q76 8 140 47t107 102l398 584l-387 561q-45 68 -127 78l-62 8v16h424v-16q-14 -4 -19 -17.5t5 -25.5l287 -424l266 389q16 23 5 45.5t-38 26.5l-51 6v16h399v-16l-53 -4q-78 -8 -146.5 -48t-113.5 -106l-240 -348l535 -776q29 -41 77 -65.5t99 -32.5l4 -5 v-16h-422v16l10 3q16 4 23.5 19t-2.5 30l-445 645l-397 -586q-14 -19 -14 -38q1 -13 7 -27q16 -34 52 -37l58 -6v-17h-400z" />
<glyph unicode="y" horiz-adv-x="1320" d="M12 1405v16h492v-16l-80 -8q-25 -4 -36 -25.5t1 -44.5l377 -668l305 654q12 29 -3 53.5t-44 28.5l-104 10v16h405v-16l-68 -8q-47 -6 -83.5 -34t-57.5 -69l-545 -1167q-29 -59 -69.5 -96t-104.5 -37q-68 0 -107.5 18.5t-61 45t-27.5 55t-4 49.5q4 45 33 76q28 30 70 30h5 q41 -2 71 -30.5t32 -69.5v-8q0 -77 -72 -92q12 -16 36.5 -21.5t52.5 3.5t54.5 32.5t46.5 64.5l230 490h-183l-368 653q-25 45 -67 74t-93 37z" />
<glyph unicode="z" horiz-adv-x="1544" d="M27 8v17q61 10 112 44.5t82 88.5l709 1216q-59 12 -135 16q-34 2 -69 3q-42 1 -85 -3q-78 -6 -152.5 -21t-134.5 -40q-53 -39 -99 -79t-81 -72q-39 -39 -74 -76l-16 12l176 307h1081v-16q-94 -10 -174 -60.5t-127 -132.5l-663 -1140q73 -20 191 -28q87 -6 179 -7 q32 0 66 1q127 3 244 18.5t186 41.5q53 39 101.5 79t82.5 75q41 39 74 76l17 -13l-177 -307h-1314z" />
<glyph unicode="{" horiz-adv-x="466" d="M92 514v33q49 0 84 57q39 61 39 148v452q0 113 51 197q27 41 68 63.5t121 22.5v-33q-82 0 -120 -54t-38 -194v-452v-4q0 -51 -19.5 -90t-44 -67t-48 -44.5t-31.5 -20.5q8 -4 31.5 -20t48 -44t44 -67t19.5 -90v-452q0 -139 38 -193.5t120 -54.5v-33q-80 0 -121 22.5 t-68 63.5q-51 84 -51 197v452q0 86 -39 148q-35 57 -84 57z" />
<glyph unicode="|" horiz-adv-x="321" d="M143 -412v1899h33v-1899h-33z" />
<glyph unicode="}" horiz-adv-x="466" d="M8 -387q82 0 120 54t38 194v452q0 51 19.5 90t44 67t48 44t31.5 21q-8 4 -31.5 20t-48 44t-44 67t-19.5 90v452q0 139 -38 193.5t-120 54.5v33q80 0 121 -22.5t68 -63.5q51 -84 51 -197v-452q0 -86 39 -148v4q35 -57 84 -57v-33q-49 0 -84 -57q-39 -61 -39 -148v-452 q0 -113 -51 -197q-27 -41 -68 -63.5t-121 -22.5v33z" />
<glyph unicode="&#xa9;" horiz-adv-x="1703" d="M102 715q0 152 59.5 285t161 232t237.5 156.5t292 57.5t292 -57.5t237.5 -156.5t161 -232.5t59.5 -284.5q0 -152 -59.5 -285t-161 -232.5t-237.5 -156.5t-292 -57t-292 57t-237.5 156.5t-161 232.5t-59.5 285zM291 715q0 -143 44 -269.5t120.5 -219.5t178 -147t218.5 -54 h-2q117 0 218 54t178 147t121 219t44 270q0 121 -31.5 228.5t-87.5 195.5l-131 -166h-14q-53 68 -129 107.5t-162 39.5q-70 0 -130 -31.5t-105.5 -87t-72 -129t-26.5 -157.5t26.5 -158t72 -129t105.5 -87t130 -32q84 0 153.5 33t120.5 90l29 -31q-59 -53 -137 -83.5 t-166 -30.5q-92 0 -173 33.5t-141.5 92t-95 136.5t-34.5 168q0 88 34.5 167t95 137t141.5 92t173 34q63 0 120.5 -16.5t108.5 -45.5l199 68q-78 117 -189.5 184.5t-242.5 67.5q-117 0 -218.5 -54.5t-178 -148.5t-120.5 -219t-44 -268z" />
<glyph unicode="&#xab;" horiz-adv-x="753" d="M57 594v37q63 16 131 50t123.5 88t94 131t45.5 179h41q-18 -193 -84 -306.5t-199 -160.5q133 -47 198.5 -160.5t84.5 -306.5h-41q-6 102 -45 179t-94.5 131.5t-123 88.5t-131.5 50zM383 590v41q106 53 160.5 163.5t70.5 284.5h35q-6 -102 -17 -177t-30.5 -130t-50.5 -93 t-78 -67v-2q51 -35 83 -73.5t50.5 -92t27.5 -127t15 -176.5h-35q-16 174 -70.5 285t-160.5 164z" />
<glyph unicode="&#xad;" horiz-adv-x="546" d="M20 457v32h504v-32h-504z" />
<glyph unicode="&#xae;" horiz-adv-x="1703" d="M102 715q0 152 59.5 285t161 232t237.5 156.5t292 57.5t292 -57.5t237.5 -156.5t161 -232.5t59.5 -284.5q0 -152 -59.5 -285t-161 -232.5t-237.5 -156.5t-292 -57t-292 57t-237.5 156.5t-161 232.5t-59.5 285zM293 711q0 -143 44 -269.5t121 -219.5t178 -147.5t218 -54.5 q139 0 256 75t195 202q-125 -4 -210 63.5t-145 190.5q-16 35 -30.5 67.5t-30 59.5t-32.5 44t-40 23q-43 0 -82 7v-398q0 -31 33 -39l31 -6v-10h-236v10l31 6q33 8 33 39v721q0 31 -33 39l-31 6v10h121q47 0 118.5 10.5t141.5 7.5t124 -34t71 -113q12 -61 -6.5 -106 t-56.5 -74.5t-89 -46t-106 -22.5q35 -14 64.5 -40t55.5 -71q29 -51 53.5 -106.5t57.5 -102.5t79 -80t120 -35l4 -4q47 86 73.5 186.5t26.5 211.5q0 143 -44 268t-120.5 219t-178 148.5t-218.5 54.5t-218 -54.5t-178 -148.5t-121 -219t-44 -268zM737 772v2q41 -10 96.5 -7 t104.5 26.5t79 71.5t17 126q-10 70 -47 97.5t-83 32.5t-92 -7t-75 -22v-320z" />
<glyph unicode="&#xbb;" horiz-adv-x="753" d="M102 143q6 102 15.5 176t28 127.5t49 92.5t84.5 73q-47 29 -78 67t-50.5 93t-30.5 130t-18 177h35q16 -174 70.5 -284.5t161.5 -163.5v-41v2q-106 -53 -160.5 -164t-71.5 -285h-35zM260 145q18 193 84 306.5t199 160.5q-133 47 -198.5 161t-84.5 306h41q6 -102 45 -179 t94.5 -131t122 -88t131.5 -50v-37q-66 -16 -132 -50t-121.5 -88.5t-94.5 -131t-45 -179.5h-41z" />
<glyph unicode="&#x401;" horiz-adv-x="1406" d="M70 6v17l53 10q25 4 40 23.5t15 43.5v1227q0 25 -15.5 44.5t-39.5 23.5l-53 10v16h1130l82 -321l-25 -10q-33 41 -71 81q-35 35 -79 76t-95 78q-70 35 -164 51.5t-188.5 15.5t-175.5 -18.5t-122 -48.5v-516q29 -4 79.5 -7t109.5 7q23 20 38 53t25 66q12 37 21 78h20 q10 -84 26.5 -152t35 -120t34 -86t21.5 -48l-20 -10q-55 61 -102.5 101t-76.5 61q-66 20 -124 16t-89 -12v-660q27 -20 76 -34.5t112.5 -21.5t135.5 -8t143.5 6t138 20.5t119.5 33.5q53 39 101.5 79t83.5 75q41 39 73 76l17 -9l-176 -307h-1114zM391 1647q0 43 31 73.5 t74 30.5t73.5 -30.5t30.5 -73.5t-30.5 -74t-73.5 -31t-74 31t-31 74zM754 1647q0 43 30.5 73.5t73.5 30.5t74 -30.5t31 -73.5t-31 -74t-74 -31t-73.5 31t-30.5 74z" />
<glyph unicode="&#x404;" horiz-adv-x="1404" d="M76 715q0 152 57 285t158.5 232t237 156.5t292.5 57.5q144 0 269 -47q63 -27 112 -63t82 -74.5t49.5 -78.5t16.5 -75q0 -78 -53.5 -125t-139.5 -47q-49 0 -87 14.5t-66.5 37t-49 50t-32.5 54.5l22 16q20 -29 58 -48.5t79 -19.5q45 0 82 32t37 108q0 43 -19.5 74.5 t-41.5 52.5q-27 23 -60 41q-121 59 -260 53q-66 0 -128 -17.5t-118 -50.5q-72 -41 -128 -103.5t-97 -141t-63.5 -172t-22.5 -193.5q59 66 132 99.5t136 33.5q53 0 106.5 -15.5t105 -38t97.5 -48t85 -47.5q45 -25 89 -28t80.5 12.5t61.5 49t33 80.5h22q-16 -104 -80.5 -156.5 t-158.5 -76.5q-55 -12 -111.5 -2t-113 32.5t-114 50t-114.5 48.5q-61 27 -131 25.5t-125 -58.5q4 -139 51 -260t126 -211t181.5 -141.5t217.5 -51.5q141 0 261 55.5t206 153.5l49 -51q-104 -92 -234.5 -143t-279.5 -51q-158 0 -296 57t-242.5 156.5t-165 232.5t-60.5 285z " />
<glyph unicode="&#x406;" horiz-adv-x="540" d="M70 6v17l53 10q25 4 40 23.5t15 43.5v1227q0 25 -15.5 44.5t-39.5 23.5l-53 10v16h399v-16l-53 -10q-25 -4 -40.5 -23.5t-15.5 -44.5v-1227q0 -25 15.5 -44t40.5 -23l53 -10v-17h-399zM168 1655q0 41 29.5 70.5t70.5 29.5t71 -29.5t30 -70.5t-30 -71t-71 -30t-70.5 30 t-29.5 71z" />
<glyph unicode="&#x407;" horiz-adv-x="538" d="M-16 1642q0 43 30.5 74t73.5 31t74 -30.5t31 -74.5q0 -43 -31 -73.5t-74 -30.5t-73.5 30.5t-30.5 73.5zM70 0v16l53 11q25 4 40 23.5t15 43.5v1227q0 25 -15.5 44t-39.5 24l-53 10v16h399v-16l-53 -10q-25 -4 -40.5 -23.5t-15.5 -44.5v-1227q0 -25 15.5 -44t40.5 -23 l53 -11v-16h-399zM346 1642q0 43 31 74t74 31t73.5 -30.5t30.5 -74.5q0 -43 -30.5 -73.5t-73.5 -30.5t-74 30.5t-31 73.5z" />
<glyph unicode="&#x409;" horiz-adv-x="1193" d="M74 6v17l53 10q25 4 40 23.5t15 43.5v1227q0 25 -15 44.5t-40 23.5l-53 10v16h53h874l82 -317l-24 -10q-37 57 -89 107t-113.5 89t-128 62.5t-134.5 27.5t-126 -13t-106 -52l-2 -699l5 -2q100 84 204.5 126t200.5 48.5t176 -23.5t130 -90.5t62.5 -151.5t-24.5 -208 q-35 -106 -92 -169.5t-126 -98.5t-143.5 -45t-147.5 -9t-136 7t-109 6h-286zM367 61q86 -47 184 -46t183 48.5t144.5 141.5t65.5 237h4q4 96 -26.5 155.5t-82 87.5t-117 29t-132 -18.5t-125.5 -56.5t-98 -82v-496z" />
<glyph unicode="&#x40e;" horiz-adv-x="1406" d="M0 1405v16h492v-16l-46 -4q-39 -4 -56 -38t1 -69l324 -610h295q49 145 84.5 288.5t58.5 270.5q10 59 -23.5 105.5t-93.5 52.5l-35 4l5 18h399v-16l-31 -4q-66 -8 -113 -52t-57 -110q-29 -166 -81 -360.5t-130 -380.5q-37 -88 -85 -180.5t-106.5 -167t-127 -121.5 t-144.5 -47q-111 0 -165 44t-61 98t25.5 98t94.5 44q45 0 75.5 -30.5t30.5 -73.5t-30.5 -74t-75.5 -31h-12q41 -29 116 -28q113 0 224 135q100 123 194 350q12 29 24.5 59.5t22.5 61.5h-458l-340 645q-27 47 -72 79t-98 40zM483 1755q0 37 31 63.5t68 26.5q35 0 55 -22.5 t25.5 -50t-7 -54t-43.5 -32.5q-16 -4 -28.5 -13.5t-12.5 -25.5q0 -31 28 -51.5t69 -30t89 -9.5t89 10.5t68.5 30t27.5 50.5q0 16 -13.5 25t-29.5 14q-33 6 -46 33.5t-6 56t32.5 49t70.5 14.5q37 -6 54.5 -30.5t17.5 -61.5q0 -47 -18.5 -90t-52 -76t-84 -52.5t-113.5 -19.5 t-113.5 20.5t-85.5 54.5t-53.5 78t-18.5 93z" />
<glyph unicode="&#x410;" horiz-adv-x="1777" d="M4 10v17l43 4q63 6 116.5 40.5t86.5 90.5l565 993l-65 115q-31 53 -83.5 88t-115.5 41l-68 6v16h435v-16q-14 -4 -19.5 -17.5t0.5 -25.5l690 -1223q27 -45 69 -73.5t93 -36.5l25 -2v-17h-422v17l18 4q27 4 38 28.5t-3 46.5l-180 320h-776l-160 -283q-20 -35 -3 -70.5 t58 -39.5l57 -6v-17h-399zM477 471h725l-360 639z" />
<glyph unicode="&#x411;" horiz-adv-x="1226" d="M68 6v17l53 10q25 4 40 23.5t15 43.5v1227q0 25 -15.5 44.5t-39.5 23.5l-53 10v16h53h938l82 -317l-25 -10q-53 68 -110.5 120t-135.5 111q-70 35 -142.5 50.5t-140 13t-127 -20.5t-100.5 -49v-451l-2 -2q154 43 306.5 28t270.5 -80.5t183.5 -177.5t44.5 -261 q-16 -115 -61 -193t-112.5 -124t-153.5 -65.5t-187 -19.5q-86 0 -145.5 5.5t-114.5 11.5t-117.5 11t-150.5 5h-53zM356 37q33 -8 88.5 -18.5t120 -10.5t132 15.5t126 56.5t102.5 114.5t60 190.5l-2 2q20 139 -31 241.5t-144 161t-214 67.5t-238 -38v-782z" />
<glyph unicode="&#x412;" horiz-adv-x="1241" d="M68 6v17l53 10q25 4 40 23.5t15 43.5v1227q0 25 -15.5 44.5t-39.5 23.5l-53 10v16h53q88 0 149.5 5.5t118.5 11.5t125 11t172 5q176 0 257 -75.5t65 -200.5q-10 -66 -55.5 -119t-127.5 -86t-198.5 -38t-266.5 28v-95l-2 -2q154 43 306.5 28t270.5 -80.5t183.5 -177.5 t44.5 -261q-16 -115 -61 -193t-112.5 -124t-153.5 -65.5t-187 -19.5q-86 0 -145.5 5.5t-114.5 11.5t-117.5 11t-150.5 5h-53zM356 37q33 -8 88.5 -18.5t120 -10.5t131 15.5t126 56.5t103.5 114.5t60 190.5l-2 2q20 139 -31 241.5t-144 161t-214 67.5t-238 -38v-782z M356 1006q76 -20 163 -29.5t162 5.5t125 61.5t50 138.5q0 76 -28.5 122t-73.5 71.5t-100.5 33.5t-111 6t-104.5 -11t-80 -15z" />
<glyph unicode="&#x413;" horiz-adv-x="1308" d="M70 8v17l53 10q25 4 40 23.5t15 43.5v1227q0 25 -15.5 44.5t-39.5 23.5l-53 10v16h1130l82 -317l-25 -10q-16 20 -33.5 40.5t-37.5 41.5q-35 35 -79 75.5t-95 77.5q-70 35 -165 51.5t-188.5 15.5t-174.5 -18.5t-122 -48.5l-2 -1229q0 -25 15.5 -44t40.5 -23l53 -10v-17 h-399z" />
<glyph unicode="&#x414;" horiz-adv-x="1689" d="M-33 -270l62 321h106l610 1104l-65 115q-31 53 -83 88t-116 41l-67 6v16h434v-16q-23 -6 -23 -31q2 -2 2 -4q0 -6 2 -8l693 -1311h143l66 -321l-19 -11q-47 84 -90 137.5t-94 84t-118 44t-161 15.5h-823q-10 0 -18.5 1t-18.5 1q-74 0 -137.5 -21.5t-114.5 -59.5t-89 -90 t-62 -112zM186 51h1131l-545 1059z" />
<glyph unicode="&#x415;" horiz-adv-x="1406" d="M70 12v17l53 10q25 4 40 23.5t15 43.5v1227q0 25 -15.5 44.5t-39.5 23.5l-53 10v16h1130l82 -321l-25 -10q-33 41 -71 82q-35 35 -79 75.5t-95 77.5q-70 35 -164 51.5t-188.5 15.5t-175.5 -18.5t-122 -48.5v-516q29 -4 79.5 -7t109.5 7q23 20 38 53t25 66q12 37 21 78h20 q10 -84 26.5 -151.5t35 -120t34 -86t21.5 -48.5l-20 -10q-55 61 -102.5 101t-76.5 61q-66 20 -124 16t-89 -12v-660q27 -20 76 -34.5t112.5 -21.5t135.5 -8t143.5 6t138 20.5t119.5 33.5q53 39 101.5 79t83.5 75q41 39 73 76l17 -9l-176 -307h-1114z" />
<glyph unicode="&#x416;" horiz-adv-x="1916" d="M39 145l49 17q4 -23 9 -48.5t18.5 -48t36 -38t59.5 -15.5q41 0 78 16.5t64.5 72t44 162t16.5 284.5q0 168 35.5 266t97 146.5t143.5 57.5t174 1v45q-59 -10 -107 -1t-88 34.5t-73 63.5t-59 85q-51 88 -106.5 123t-101.5 36t-78 -21.5t-38 -47.5q20 12 47 13 q39 0 65.5 -27t26.5 -66t-26.5 -65.5t-65.5 -26.5q-37 0 -61.5 17.5t-36.5 44t-12 56.5t10 52q16 41 56 71t91 34q18 2 48 -1t67 -19.5t77 -51.5t79 -96q68 -111 139 -150t153 -22v229q0 25 -15 44.5t-40 23.5l-53 10v16h399v-16l-53 -10q-25 -4 -40 -23.5t-15 -44.5v-229 q82 -16 153.5 22.5t139.5 149.5q39 61 78.5 96t76.5 51.5t66.5 19.5t48.5 1q51 -4 91 -34t56 -71q10 -23 10.5 -52.5t-12 -56t-37 -44t-61.5 -17.5q-39 0 -65.5 27t-26.5 65q0 39 26.5 66t65.5 27q25 0 47 -13q-6 25 -38 47.5t-78 21.5t-101 -36t-107 -123 q-27 -47 -59.5 -85t-72.5 -63.5t-89 -34.5t-106 1v-45q92 8 174 -1t143.5 -57.5t97 -146.5t35.5 -266q0 -178 16.5 -284.5t44 -162t64.5 -72t78 -16.5q37 0 59.5 15.5t36 38t18.5 48t9 48.5l49 -17q-6 -29 -19.5 -58.5t-35 -54t-51 -41t-66.5 -16.5q-55 0 -108.5 20.5 t-95.5 82t-67.5 174.5t-25.5 297v108q0 127 -30.5 198t-82 103.5t-116 33.5t-133.5 -11v-881q0 -25 15 -44t40 -23l53 -10v-17h-399v17l53 10q25 4 40 23.5t15 43.5v881q-70 12 -135 11t-115.5 -33.5t-81 -103.5t-30.5 -198v-108q0 -184 -25.5 -297t-67.5 -174.5t-95.5 -82 t-108.5 -20.5q-37 0 -66.5 16.5t-51 41t-35 54.5t-19.5 58z" />
<glyph unicode="&#x417;" horiz-adv-x="1198" d="M33 20l71 365h27q53 -168 174 -264t268 -101q70 0 136.5 32t119 88.5t83 136t30.5 176.5q0 172 -72.5 272t-230.5 123q-12 2 -32.5 3t-44 2t-46 1h-35.5v35h35h46.5t44 1t32.5 3q127 18 186.5 90t59.5 195q0 72 -43 122t-108.5 74.5t-146.5 22.5t-156 -31t-135 -86 t-87 -145h-31q-12 61 -23.5 107t-21.5 83t-22.5 66.5t-26.5 58.5l25 10q27 -25 63.5 -49.5t65.5 -40.5q39 8 84 23.5t97 30t113.5 24.5t135.5 10q80 0 155.5 -12t134 -44t93 -87t34.5 -144q0 -233 -331 -299l2 7q74 -10 144.5 -38t126.5 -78t91 -123t35 -173 q0 -135 -61.5 -227.5t-150.5 -149.5t-188 -81.5t-175 -24.5q-129 0 -228.5 36.5t-183.5 106.5l-115 -113z" />
<glyph unicode="&#x418;" d="M70 6v17l53 10q25 4 40 23.5t15 43.5v1227q0 25 -15.5 44.5t-39.5 23.5l-53 10v16h399v-16l-53 -10q-25 -4 -40.5 -23.5t-15.5 -44.5v-1157l900 1145v12q0 25 -15.5 44.5t-40.5 23.5l-53 10v16h399v-16l-53 -10q-25 -4 -40 -23.5t-15 -44.5v-1227q0 -25 15.5 -44 t39.5 -23l53 -10v-17h-399v17l53 10q25 4 40.5 23.5t15.5 43.5v1157l-900 -1148v-9q0 -25 15.5 -44t40.5 -23l53 -10v-17h-399z" />
<glyph unicode="&#x419;" d="M70 6v17l53 10q25 4 40 23.5t15 43.5v1227q0 25 -15.5 44.5t-39.5 23.5l-53 10v16h399v-16l-53 -10q-25 -4 -40.5 -23.5t-15.5 -44.5v-1165l900 1153v12q0 25 -15.5 44.5t-40.5 23.5l-53 10v16h399v-16l-53 -10q-25 -4 -40 -23.5t-15 -44.5v-1227q0 -25 15.5 -44 t39.5 -23l53 -10v-17h-399v17l53 10q25 4 40.5 23.5t15.5 43.5v1164l-900 -1155v-9q0 -25 15.5 -44t40.5 -23l53 -10v-17h-399zM563 1769q0 37 31 64t68 27q35 0 55 -22.5t25.5 -50.5t-7 -54.5t-43.5 -32.5q-16 -4 -28.5 -13.5t-12.5 -25.5q0 -31 28 -51.5t68.5 -29.5t89 -9 t89.5 10t68.5 30.5t27.5 49.5q0 16 -13.5 25.5t-29.5 13.5q-33 6 -46 33.5t-6 56.5t32.5 49.5t70.5 13.5q37 -6 54.5 -30.5t17.5 -61.5q0 -47 -18.5 -90t-52.5 -75.5t-84 -52t-113 -19.5t-113.5 20.5t-85.5 54t-53.5 77.5t-18.5 93z" />
<glyph unicode="&#x41a;" horiz-adv-x="1222" d="M68 6v17l53 10q25 4 40 23.5t15 43.5v1227q0 25 -15.5 44.5t-39.5 23.5l-53 10v16h399v-16l-53 -10q-25 -4 -40.5 -23.5t-15.5 -44.5v-229q82 -16 154 22.5t139 149.5q35 55 72 89t70.5 52.5t62.5 23.5t49 5q4 0 8.5 -1t8.5 -1q51 -4 91 -34t56 -71q10 -23 10 -52.5 t-12 -56t-36.5 -44t-61.5 -17.5q-39 0 -65.5 27t-26.5 65q0 39 26.5 66t65.5 27q25 0 47 -13q-6 25 -38 47.5t-77 22.5q-47 0 -101.5 -35t-107.5 -125q-27 -47 -59.5 -85t-72.5 -63.5t-89 -34.5t-106 1v-45q92 8 174 -1t143 -57.5t97 -146.5t36 -266q0 -178 16.5 -284.5 t44 -162t64.5 -72t78 -16.5q37 0 59.5 15.5t35.5 38t18.5 48t9.5 48.5l49 -17q-6 -29 -19.5 -58.5t-35 -54t-51 -41t-66.5 -16.5q-55 0 -108.5 20.5t-95.5 82t-67.5 174.5t-25.5 297v108q0 127 -31 198t-82 103.5t-115.5 33.5t-134.5 -11v-881q0 -25 15.5 -44t40.5 -23 l53 -10v-17h-399z" />
<glyph unicode="&#x41b;" horiz-adv-x="1880" d="M19.5 89q-11.5 38 0.5 85q10 49 51.5 73.5t88.5 10.5q23 -4 41 -20.5t30.5 -38t16.5 -47t0 -50.5q-4 -14 -12.5 -27.5t-18.5 -25.5q10 0 31.5 14.5t57.5 56.5t88 118.5t127 199.5t173.5 299t223.5 418l-66 115q-31 53 -83 88t-116 41l-67 6v16h434v-16 q-14 -4 -19.5 -17.5t0.5 -25.5l691 -1223q27 -45 68.5 -73.5t92.5 -36.5l25 -2v-17h-422v17l19 4q27 4 38 28.5t-4 46.5l-565 1004q-141 -272 -247.5 -459.5t-183.5 -311.5t-130 -193.5t-89 -102.5t-58.5 -41t-38.5 -8q-41 -12 -78 -2t-62.5 34.5t-37 62.5z" />
<glyph unicode="&#x41c;" horiz-adv-x="2316" d="M4 8v17l19 2q76 8 136 51t93 110l498 1033l-70 86q-68 80 -172 90l-105 10v16h383l422 -510l439 510h229v-16l-203 -21l-6 -8l475 -1218l4 2q23 -53 67 -89t101 -46v-17h-422v17l31 6q25 4 37 26.5t2 44.5l-434 1113l-393 -459l-353 426l-503 -1043q-16 -35 2 -69.5 t57 -38.5l65 -8v-17h-399z" />
<glyph unicode="&#x41d;" d="M70 6v17l53 10q25 4 40 23.5t15 43.5v1227q0 25 -15.5 44.5t-39.5 23.5l-53 10v16h399v-16l-53 -10q-25 -4 -40.5 -23.5t-15.5 -44.5v-420h900v420q0 25 -15.5 44.5t-40.5 23.5l-53 10v16h399v-16l-53 -10q-25 -4 -40 -23.5t-15 -44.5v-1227q0 -25 15.5 -44t39.5 -23 l53 -10v-17h-399v17l53 10q25 4 40.5 23.5t15.5 43.5v764h-900v-764q0 -25 15.5 -44t40.5 -23l53 -10v-17h-399z" />
<glyph unicode="&#x41e;" horiz-adv-x="1646" d="M74 713q0 152 59.5 284.5t160.5 232t237 157t292 57.5t292 -57.5t237.5 -157t161 -232.5t59.5 -284q0 -152 -59.5 -285t-161 -232.5t-237.5 -156.5t-292 -57t-292 57t-237 156.5t-160.5 232.5t-59.5 285zM262 713q0 -143 44 -269.5t121 -219.5t178 -147t218 -54t218.5 54 t178 147t120.5 219t44 270q0 143 -44 268t-120.5 219t-178 148.5t-218.5 54.5t-218 -54.5t-178 -148.5t-121 -219t-44 -268z" />
<glyph unicode="&#x41f;" d="M70 0v16l53 11q25 4 40 23.5t15 43.5v1233q0 25 -15.5 44.5t-39.5 23.5l-53 10v16h1480v-16l-53 -10q-25 -4 -40 -23.5t-15 -44.5v-1233q0 -25 15.5 -44t39.5 -23l53 -11v-16h-399v16l53 11q25 4 40.5 23.5t15.5 43.5v1233q0 25 -15.5 44.5t-40.5 23.5h-788 q-25 -4 -40.5 -23.5t-15.5 -44.5v-1233q0 -25 15.5 -44t40.5 -23l53 -11v-16h-399z" />
<glyph unicode="&#x420;" horiz-adv-x="1173" d="M72 6v17l53 10q25 4 40 23.5t15 43.5v1227q0 25 -15 44.5t-40 23.5l-53 10v16h53q88 0 156.5 5.5t135 11.5t141.5 11t179 5q203 0 308.5 -71.5t91.5 -213.5q-10 -94 -77 -160.5t-172.5 -94t-241.5 -8t-284 99.5v-906q0 -25 15.5 -44t40.5 -23l53 -10v-17h-399zM362 1053 q29 -25 83.5 -50.5t118 -41t131 -16.5t122.5 22.5t91 74t40 140.5v2q2 78 -30.5 124t-86 71.5t-121 32.5t-133 4t-123 -12t-92.5 -15v-336z" />
<glyph unicode="&#x421;" horiz-adv-x="1572" d="M74 715q0 152 59.5 285t161.5 232t239.5 156.5t294.5 57.5q109 0 207.5 -27.5t184.5 -77.5l346 119l14 -14l-231 -293h-25q-92 117 -220 184.5t-276 67.5l-2 -4q-117 0 -220 -54.5t-180 -148.5t-122 -219t-45 -268t45 -269.5t122 -219.5t180.5 -147.5t219.5 -54.5 q141 0 261 55.5t206 153.5l49 -51q-102 -92 -233 -143t-281 -51q-158 0 -295 57t-239 156.5t-161.5 232.5t-59.5 285z" />
<glyph unicode="&#x422;" horiz-adv-x="1294" d="M-2 1452l18 6q12 -10 33 -18q16 -8 44 -13.5t69 -5.5h964q41 0 69 5.5t44 13.5q20 8 33 18l18 -6l-108 -283l-21 2q-8 70 -57 123q-41 45 -127 76t-242 16v-1288q0 -25 15.5 -44t40.5 -23l53 -11v-16h-400v16l54 11q25 4 40 23.5t15 43.5v1288q-156 14 -242 -16.5 t-127 -75.5q-49 -53 -57 -123l-21 -2z" />
<glyph unicode="&#x423;" horiz-adv-x="1406" d="M0 1405v16h492v-16l-46 -4q-39 -4 -56 -38t1 -69l324 -610h295q49 145 84.5 288.5t58.5 270.5q10 59 -23.5 105.5t-93.5 52.5l-35 4l5 18h399v-16l-31 -4q-66 -8 -113 -52t-57 -110q-29 -166 -81 -360.5t-130 -380.5q-37 -88 -85 -180.5t-106.5 -167t-127 -121.5 t-144.5 -47q-111 0 -165 44t-61 98t25.5 98t94.5 44q45 0 75.5 -30.5t30.5 -73.5t-30.5 -74t-75.5 -31h-12q41 -29 116 -28q113 0 224 135q100 123 194 350q12 29 24.5 59.5t22.5 61.5h-458l-340 645q-27 47 -72 79t-98 40z" />
<glyph unicode="&#x424;" horiz-adv-x="2033" d="M45 756q0 154 45 258t117 168.5t165 95.5t191.5 41t192.5 6t170 -12q0 6 -1 19.5t-3 19.5q-14 37 -52 43l-53 10v16h400v-16l-54 -10q-25 -4 -40 -23.5t-15 -44.5v-29q76 8 171 14.5t192.5 -3t189.5 -40t163.5 -94t113.5 -167t38 -256.5q-4 -152 -50 -255.5t-117.5 -168 t-163 -97t-185.5 -45t-186 -8.5t-166 12v-96q0 -25 15.5 -44t39.5 -23l54 -11v-16h-404v25l53 10q25 4 39.5 23.5t16.5 43.5l4 105q-25 -4 -55.5 -6t-64.5 -5t-66.5 -4.5t-61.5 -1.5q-109 -2 -221.5 18.5t-203.5 82t-149.5 173t-58.5 292.5zM244 764q-6 -166 30.5 -271.5 t100 -166t143.5 -82t162 -19.5q70 2 134.5 14.5t113.5 28.5v963q-70 23 -146.5 38t-151.5 11t-142.5 -30.5t-121 -86t-86 -158t-36.5 -241.5zM1108 252q53 -16 124 -28.5t145.5 -9.5t146 29.5t128 87t91.5 165t35 262.5q0 143 -31 241.5t-82 159t-117.5 88t-141.5 31.5 t-151.5 -11.5t-146.5 -39.5v-975z" />
<glyph unicode="&#x425;" horiz-adv-x="1550" d="M8 6v17l21 2q76 8 140 47t107 102l398 584l-387 561q-45 68 -127 78l-62 8v16h424v-16q-14 -4 -19 -17.5t5 -25.5l287 -424l266 389q16 23 5 45.5t-38 26.5l-51 6v16h399v-16l-53 -4q-78 -8 -146.5 -48t-113.5 -106l-240 -348l535 -776q29 -41 77 -65.5t99 -32.5l4 -5 v-16h-422v16l10 3q16 4 23.5 19t-2.5 30l-445 645l-397 -586q-23 -31 -7.5 -64.5t52.5 -37.5l58 -6v-17h-400z" />
<glyph unicode="&#x426;" d="M70 0v16l53 11q25 4 40 23.5t15 43.5v1233q0 25 -15.5 44.5t-39.5 23.5l-53 10v16h399v-16l-53 -10q-25 -4 -40.5 -23.5t-15.5 -44.5v-1221q0 -25 15.5 -44t40.5 -23h788q25 4 40.5 23.5t15.5 43.5v1221q0 25 -15.5 44.5t-40.5 23.5l-53 10v16h399v-16l-53 -10 q-25 -4 -40 -23.5t-15 -44.5v-1214q0 -25 8 -44.5t33 -23.5l2 -4h100l66 -311l-19 -11q-47 84 -90 137.5t-94 84t-117.5 44t-161.5 15.5h-1099z" />
<glyph unicode="&#x427;" horiz-adv-x="1579" d="M49 1405v16h400v-16l-54 -10q-25 -4 -40 -23.5t-15 -44.5v-235q0 -223 131 -336t360 -113q129 0 222.5 38t146.5 99q6 8 12.5 14.5t10.5 14.5v518q0 25 -15.5 44.5t-40.5 23.5l-53 10v16h399v-16l-53 -10q-25 -4 -40 -23.5t-15 -44.5v-1233q0 -25 15.5 -44t39.5 -23 l53 -11v-16h-399v16l53 11q25 4 40.5 23.5t15.5 43.5v645q-31 -31 -64 -55q-59 -41 -144 -65.5t-190 -24.5q-207 0 -337 40t-203.5 108.5t-100 158.5t-26.5 191v235q0 25 -15.5 44.5t-40.5 23.5z" />
<glyph unicode="&#x428;" horiz-adv-x="2355" d="M59 0v16l54 11q25 4 40 23.5t15 43.5v1233q0 25 -15.5 44.5t-39.5 23.5l-54 10v16h400v-16l-53 -10q-25 -4 -40.5 -23.5t-15.5 -44.5v-1221q0 -25 15.5 -44t40.5 -23h618q25 4 40 23.5t15 43.5v1221q0 25 -15 44.5t-40 23.5l-53 10l8 16h399v-16l-53 -10 q-25 -4 -40 -23.5t-15 -44.5v-1221q0 -25 15 -44t40 -23h619q25 4 40 23.5t15 43.5v1221q0 25 -15.5 44.5t-39.5 23.5l-54 10v16h400v-16l-54 -10q-25 -4 -40 -23.5t-15 -44.5v-1233q0 -25 15.5 -44t39.5 -23l54 -11v-16h-2231z" />
<glyph unicode="&#x429;" horiz-adv-x="2367" d="M59 0v16l54 11q25 4 40 23.5t15 43.5v1233q0 25 -15.5 44.5t-39.5 23.5l-54 10v16h400v-16l-53 -10q-25 -4 -40.5 -23.5t-15.5 -44.5v-1221q0 -25 15.5 -44t40.5 -23h618q25 4 40 23.5t15 43.5v1221q0 25 -15 44.5t-40 23.5l-53 10l8 16h399v-16l-53 -10 q-25 -4 -40 -23.5t-15 -44.5v-1221q0 -25 15 -44t40 -23h619q25 4 40 23.5t15 43.5v1221q0 25 -15.5 44.5t-39.5 23.5l-54 10v16h400v-16l-54 -10q-25 -4 -40 -23.5t-15 -44.5v-1214q0 -25 8.5 -44.5t32.5 -23.5l2 -4h137l66 -311l-19 -11q-47 84 -90 137.5t-94 84 t-117.5 44t-160.5 15.5h-1887z" />
<glyph unicode="&#x42a;" horiz-adv-x="1665" d="M57 1454l19 6q12 -10 33 -18q16 -8 43.5 -13.5t68.5 -5.5l686 -2v-16l-53 -10q-25 -4 -40 -23.5t-15 -44.5v-459l-2 -2q154 43 306 28t270 -80.5t183.5 -177.5t45.5 -261q-16 -115 -61.5 -193t-113 -124t-153.5 -65.5t-187 -19.5q-86 0 -145 5.5t-114.5 11.5t-118 11 t-150.5 5h-53v17l53 10q25 4 40 23.5t15 43.5l-2 1289q-156 14 -241.5 -17t-126.5 -76q-49 -53 -58 -122l-20 -3zM795 37q33 -8 88 -18.5t119.5 -10.5t132 15.5t126 56.5t102.5 114.5t60 190.5l-2 2q20 139 -31 241.5t-144 161t-214 67.5t-237 -38v-782z" />
<glyph unicode="&#x42b;" horiz-adv-x="1759" d="M63 6v17l54 10q25 4 40 23.5t15 43.5v1227q0 25 -15.5 44.5t-39.5 23.5l-54 10v16h400v-16l-49 -10q-25 -4 -40.5 -23.5t-15.5 -44.5l-2 -8v-451l-2 -2q154 43 306.5 28t270.5 -80.5t183.5 -177.5t44.5 -261q-16 -115 -61 -193t-112.5 -124t-154 -65.5t-186.5 -19.5 q-86 0 -145.5 5.5t-114.5 11.5t-117.5 11t-150.5 5h-54zM352 37q33 -8 88.5 -18.5t120 -10.5t132 15.5t126 56.5t102.5 114.5t60 190.5l-2 2q20 139 -31 241.5t-144 161t-214 67.5t-238 -38v-782zM1253 0v16l54 11q25 4 40 23.5t15 43.5v1227q0 25 -15.5 44t-39.5 24l-54 10 v16h400v-16l-54 -10q-25 -4 -40 -23.5t-15 -44.5v-1227q0 -25 15.5 -44t39.5 -23l54 -11v-16h-400z" />
<glyph unicode="&#x42c;" horiz-adv-x="1222" d="M63 6v17l54 10q25 4 40 23.5t15 43.5v1227q0 25 -15.5 44.5t-39.5 23.5l-54 10v16h400v-16l-49 -10q-25 -4 -40.5 -23.5t-15.5 -44.5l-2 -8v-451l-2 -2q154 43 306.5 28t270.5 -80.5t183.5 -177.5t44.5 -261q-16 -115 -61 -193t-112.5 -124t-154 -65.5t-186.5 -19.5 q-86 0 -145.5 5.5t-114.5 11.5t-117.5 11t-150.5 5h-54zM352 37q33 -8 88.5 -18.5t120 -10.5t132 15.5t126 56.5t102.5 114.5t60 190.5l-2 2q20 139 -31 241.5t-144 161t-214 67.5t-238 -38v-782z" />
<glyph unicode="&#x42d;" horiz-adv-x="1404" d="M76 178l49 51q86 -98 206 -153.5t261 -55.5q117 0 221.5 54.5t183 147.5t124.5 219t46 270q-53 55 -117.5 55t-121.5 -29q-53 -23 -104.5 -52.5t-103.5 -53t-103.5 -36.5t-100.5 -3q-86 20 -146.5 67.5t-76.5 145.5l20 2q8 -45 32 -76t56.5 -45t73.5 -9t82 32 q35 23 78 50t89 51t94 40t97 18q57 4 127 -26.5t123 -91.5q-4 96 -27.5 184t-63.5 164t-95 135t-123 100q-55 33 -117.5 50.5t-128.5 17.5q-139 6 -260 -53q-35 -18 -61 -41q-23 -20 -41.5 -52t-18.5 -75q0 -76 37 -108t82 -32q41 0 79 19.5t58 48.5l23 -16 q-12 -27 -32.5 -54.5t-49.5 -50t-66.5 -37t-87.5 -14.5q-86 0 -139 47t-53 125q0 35 16.5 75t49 78.5t80.5 74.5t114 63q125 47 268 47q156 0 292 -57.5t237.5 -156.5t159 -232.5t57.5 -284.5q0 -152 -60.5 -285t-165 -232.5t-244 -156.5t-294.5 -57q-150 0 -280 51 t-234 143z" />
<glyph unicode="&#x42e;" horiz-adv-x="2123" d="M70 6v17l53 10q25 4 40 23.5t15 43.5v1227q0 25 -15.5 44.5t-39.5 23.5l-53 10v16h399v-16l-53 -10q-25 -4 -40.5 -23.5t-15.5 -44.5v-420l224 2q14 45 32 88q59 133 161 232.5t238 157t292 57.5t292 -57.5t237 -157t160.5 -232.5t59.5 -284q0 -152 -59.5 -285 t-160.5 -232.5t-237.5 -156.5t-291.5 -57q-156 0 -292 57t-237.5 156.5t-161 232.5t-59.5 285q0 80 16 153l-213 -2v-764q0 -25 15.5 -44t40.5 -23l53 -10v-17h-399zM745 713q0 -143 44.5 -269.5t121 -219.5t178 -147t218.5 -54t218 54t178 147t121 219t44 270 q0 143 -44 268t-121 219t-178.5 148.5t-217.5 54.5q-117 0 -218.5 -54.5t-178 -148.5t-121 -219t-44.5 -268z" />
<glyph unicode="&#x42f;" horiz-adv-x="1243" d="M23 8q72 -10 116.5 14.5t73.5 71.5q20 33 36.5 78t34 95t36 106.5t47.5 111.5q23 45 54.5 91.5t68 85t77.5 67.5t82 39q-94 10 -186 40t-161 83t-103.5 130t-14.5 181q18 94 67.5 146.5t118 78t149.5 28.5t161 -4t152.5 -16.5t128.5 -9.5h204v-16l-53 -10 q-25 -4 -40 -23.5t-15 -44.5v-1227q0 -25 15 -44t40 -23l53 -10v-17h-399v17l53 10q25 4 40 23.5t15 43.5v678q-33 -4 -67.5 -7t-69.5 -3q-39 -8 -69.5 -40t-58 -78t-53.5 -104t-50 -120q-59 -145 -115.5 -249.5t-136.5 -157.5q-47 -29 -102.5 -39.5t-128.5 0.5v24z M371 1194q-12 -88 7 -153.5t60 -111.5t97.5 -74t117 -39t118.5 -9t106 14v545q-33 12 -80 26.5t-99.5 21.5t-104.5 3t-98 -27.5t-79 -70.5t-45 -125z" />
<glyph unicode="&#x430;" horiz-adv-x="1464" d="M0 6v17l33 4q68 8 122 48t81 103l401 987q16 41 12 82t-24.5 75t-55 56.5t-77.5 26.5v16h399v-16l-119 -21l514 -1224l-4 -2q23 -53 69 -89t105 -46v-17h-422v17l31 6q25 4 37 26.5t2 44.5l-268 639h-326l-236 -577q-18 -45 6.5 -86t71.5 -47l47 -6v-17h-399zM524 784 h289l-147 351z" />
<glyph unicode="&#x431;" horiz-adv-x="1646" d="M62.5 973.5q5.5 105.5 15.5 204t26.5 179.5t34.5 132q76 219 250 322.5t477 74.5q86 -6 175 -19.5t166 -9t137.5 38t91.5 121.5l22 -2q-18 -59 -50 -112.5t-71 -95.5t-81 -69.5t-80 -35.5q-41 -10 -91.5 -14.5t-104.5 -3t-107.5 6.5t-102.5 11q-262 31 -403.5 -26.5 t-200.5 -217.5q-12 -31 -23.5 -91t-20.5 -137t-16.5 -162t-7.5 -165q8 25 16.5 48.5t18.5 45.5q43 98 112.5 180.5t159 141.5t196 92t222.5 33q156 0 292 -57.5t237.5 -157t161 -232.5t59.5 -284q0 -152 -59.5 -285t-161 -232.5t-237.5 -156.5t-292 -57q-117 0 -223 32.5 t-195.5 92t-159 141.5t-112.5 180v-6q-31 63 -47 152.5t-22.5 191.5t-1 207.5zM262 713q0 -143 44 -269.5t121 -219.5t178 -147t218 -54t218.5 54t178 147t120.5 219t44 270q0 143 -44 268t-120.5 219t-178 148.5t-218.5 54.5t-218 -54.5t-178 -148.5t-121 -219t-44 -268z " />
<glyph unicode="&#x432;" horiz-adv-x="1206" d="M74 6v17l53 10q25 4 40 23.5t15 43.5v1227q0 25 -15 44.5t-40 23.5l-53 10v16h155q137 0 262 15.5t265 11.5q70 -2 121 -28.5t79.5 -70.5t30.5 -105.5t-24 -133.5q-29 -78 -103 -123t-163 -57t-181 11.5t-156 84.5v-410l5 -2q100 84 204.5 126t200.5 48.5t176 -23.5 t130 -90.5t62.5 -151.5t-24.5 -208q-35 -106 -92 -169.5t-126 -98.5t-143.5 -45t-147.5 -9t-136 7t-109 6h-286zM365 1067q39 -45 103 -71.5t130 -22.5t121 45t78 133q23 100 -15.5 158.5t-108 82t-154.5 17.5t-154 -37v-305zM367 61q86 -47 184 -46t183 48.5t144.5 141.5 t65.5 237h4q4 96 -26.5 155.5t-82 87.5t-117 29t-132 -18.5t-125.5 -56.5t-98 -82v-496z" />
<glyph unicode="&#x433;" horiz-adv-x="1308" d="M70 6v17l53 10q25 4 40 23.5t15 43.5v1227q0 25 -15.5 44.5t-39.5 23.5l-53 10v16h1130l80 -319l-25 -10q-33 41 -71 82q-35 35 -79 75.5t-95 77.5q-70 35 -164 51.5t-188.5 15.5t-175.5 -18.5t-122 -48.5v-1227q0 -25 15.5 -44t40.5 -23l53 -10v-17h-399z" />
<glyph unicode="&#x434;" horiz-adv-x="1474" d="M-8 6l10 21h143l463 1138q16 41 12 82t-24.5 75t-55 56.5t-77.5 26.5v16h399v-16l-119 -21l543 -1357h182l15 -21l-150 -338l-18 6l-51 326h-1053l-51 -326l-19 -6zM190 27h885l-438 1108z" />
<glyph unicode="&#x435;" horiz-adv-x="1579" d="M72 717q0 152 59 285t160.5 232t238 156.5t291.5 57.5q154 0 287 -56.5t222 -154.5t120 -229t-18 -281h-189h-983v-12q0 -143 44 -269.5t121 -219.5t178.5 -147t217.5 -54q121 0 212 22.5t166 62.5t138.5 97t126.5 127l45 -49q-78 -72 -151.5 -128.5t-154.5 -94t-174 -57 t-208 -19.5q-156 0 -292 57t-237.5 156.5t-160.5 232.5t-59 285zM266 768h996q37 133 14 250t-86.5 203t-159.5 135t-207 49l2 -2q-111 0 -209 -49t-172.5 -135t-122 -202t-55.5 -249z" />
<glyph unicode="&#x436;" horiz-adv-x="2123" d="M-6 49l22 21q45 -25 80 -11.5t66 55.5t60.5 107.5t66.5 143.5q57 119 121.5 210t144.5 147t180.5 74.5t233.5 -5.5v122q-94 -16 -162 -0.5t-118 51t-88 84t-75 99.5q-45 63 -84 118.5t-78.5 86t-85 29.5t-104.5 -50l-20 29q78 47 139 52t110.5 -18.5t90.5 -68.5 t79.5 -99.5t77.5 -108.5t85 -97t102.5 -65.5t128.5 -12.5v385q0 25 -15.5 44.5t-40.5 23.5l-53 10l4 16h400v-16l-54 -10q-25 -4 -40 -23.5t-15 -44.5v-385q72 -10 128 12.5t103.5 65.5t87 97t79.5 108.5t82 99.5t92.5 68.5t111.5 18.5t139 -52l-20 -29q-59 49 -105.5 50 t-86.5 -29.5t-78.5 -86t-83.5 -118.5q-37 -51 -77 -99.5t-91.5 -84t-120 -51t-162.5 0.5v-122q131 25 234.5 5t186.5 -77t149.5 -148.5t123.5 -210.5q37 -78 67 -143t59.5 -107t63 -55.5t79.5 11.5l22 -21q-57 -45 -112.5 -48t-106.5 22.5t-97 78t-83 117.5 q-35 63 -63.5 132t-57.5 133.5t-66 120.5t-89 95t-126.5 57.5t-181.5 6.5v-660q0 -25 15.5 -44t39.5 -23l54 -10v-17h-400h-4v17l53 10q25 4 40.5 23.5t15.5 43.5v660q-106 12 -180 -5.5t-126.5 -56.5t-87 -95t-63.5 -119.5t-56.5 -132t-62.5 -132.5q-37 -66 -82 -118 t-96 -77.5t-106.5 -22.5t-112.5 48z" />
<glyph unicode="&#x437;" horiz-adv-x="1173" d="M54 296q-5 62 14.5 106t57.5 70t80 30t83 -14.5t65 -63.5q23 -41 10.5 -91t-61.5 -77q-47 -20 -100 -6t-78 63l-6 11q-4 -29 5 -64t34 -74q14 -29 48 -59.5t83 -56t114.5 -40t145.5 -10.5q70 0 136.5 32t118.5 88.5t83 136t31 176.5q0 172 -73 272t-231 123 q-12 2 -32.5 3t-44 2t-46 1h-34.5v35h34.5h46t44 1t32.5 3q127 18 186.5 90t59.5 195q0 72 -43 122t-108.5 74.5t-146.5 22.5t-155.5 -31t-135 -86t-87.5 -145h-30q-12 61 -23.5 107t-22 83t-22.5 66.5t-27 58.5l25 10q27 -25 63.5 -49.5t65.5 -40.5q39 8 84 23.5t97 30 t113.5 24.5t135.5 10q80 0 155.5 -12t134 -44t93.5 -87t35 -144q0 -233 -332 -299l2 7q74 -10 144.5 -38t127 -78t91 -123t34.5 -173q0 -135 -61 -227.5t-150.5 -149.5t-188.5 -81.5t-175 -24.5q-72 -8 -143.5 4t-132 37.5t-106.5 60.5t-69 72q-43 76 -48 138z" />
<glyph unicode="&#x438;" d="M70 6v17l53 10q25 4 40 23.5t15 43.5v1227q0 25 -15.5 44.5t-39.5 23.5l-53 10v16h399v-16l-53 -10q-25 -4 -40.5 -23.5t-15.5 -44.5v-1149l900 1137v12q0 25 -15.5 44.5t-40.5 23.5l-53 10v16h399v-16l-53 -10q-25 -4 -40 -23.5t-15 -44.5v-1227q0 -25 15.5 -44 t39.5 -23l53 -10v-17h-399v17l53 10q25 4 40.5 23.5t15.5 43.5v1145l-900 -1136v-9q0 -25 15.5 -44t40.5 -23l53 -10v-17h-399z" />
<glyph unicode="&#x439;" d="M70 6v17l53 10q25 4 40 23.5t15 43.5v1227q0 25 -15.5 44.5t-39.5 23.5l-53 10v16h399v-16l-53 -10q-25 -4 -40.5 -23.5t-15.5 -44.5v-1149l900 1137v12q0 25 -15.5 44.5t-40.5 23.5l-53 10v16h399v-16l-53 -10q-25 -4 -40 -23.5t-15 -44.5v-1227q0 -25 15.5 -44 t39.5 -23l53 -10v-17h-399v17l53 10q25 4 40.5 23.5t15.5 43.5v1145l-900 -1136v-9q0 -25 15.5 -44t40.5 -23l53 -10v-17h-399zM563 1706q0 37 31 63.5t68 26.5q35 0 54 -22.5t22 -50t-11 -54.5t-45 -33q-16 -4 -28.5 -13t-12.5 -26q0 -31 28.5 -51t71.5 -29.5t94.5 -9.5 t94.5 10.5t71.5 31t28.5 48.5q0 16 -13 25.5t-30 13.5q-33 6 -47 34t-9 56.5t29.5 49t69.5 14.5q37 -6 54.5 -30.5t17.5 -61.5q0 -47 -18.5 -90t-52.5 -76t-84 -52.5t-113 -19.5t-113.5 20.5t-85.5 54.5t-53.5 78t-18.5 93z" />
<glyph unicode="&#x43a;" horiz-adv-x="1384" d="M74 6v17l53 10q25 4 40 23.5t15 43.5v1227q0 25 -15 44.5t-40 23.5l-53 10v16h399v-16l-53 -10q-25 -4 -40 -23.5t-15 -44.5v-385q72 -10 129 13.5t106 65.5t92 97.5t85 108.5t87 98t97.5 68.5t115 18.5t140.5 -52l-21 -29q-59 49 -107.5 50t-91.5 -29.5t-85 -86 t-87 -118.5q-37 -51 -77.5 -100.5t-95 -84t-125 -50t-165.5 0.5v-122q131 25 240 7t197 -73t158.5 -145.5t127.5 -208.5q37 -78 67 -143.5t59.5 -107.5t63.5 -55.5t79 11.5l22 -21q-57 -45 -110.5 -49t-101.5 23.5t-92 79t-81 116.5q-53 94 -98 196.5t-109.5 184.5t-162 127 t-256.5 27v-660q0 -25 15 -44t40 -23l53 -10v-17h-399z" />
<glyph unicode="&#x43b;" horiz-adv-x="1542" d="M-14.5 91q-12.5 38 0.5 85q10 49 52 79t89 15q23 -4 44.5 -21.5t32.5 -46t7 -65.5t-31 -82q10 0 30.5 12.5t52.5 52.5t75 113.5t99.5 195.5t127 301t154.5 427q16 41 10 86t-26.5 79t-55.5 56.5t-78 26.5v16h400v-16l-119 -21l514 -1230l-4 -2q23 -53 69 -89t105 -47v-16 h-422v16l31 7q25 4 37 26.5t2 44.5l-430 1036q-88 -256 -161 -439t-132.5 -309t-106.5 -203t-83 -118t-61.5 -54t-41.5 -13q-41 -12 -79 -2t-63.5 35.5t-38 63.5z" />
<glyph unicode="&#x43c;" horiz-adv-x="1759" d="M43 1405v16h379l532 -415l502 415h232v-16l-54 -10h2q-25 -4 -40 -23.5t-15 -44.5v-1227q0 -25 15.5 -44t39.5 -23l54 -10v-17h-400v17l53 10q25 4 40.5 23.5t15.5 43.5v1215l-553 -461l-578 453v-1129q0 -57 38 -99t95 -48l43 -4v-17h-399v17l43 4q57 6 95 48t38 99 v1092q0 51 -33.5 88t-85.5 41z" />
<glyph unicode="&#x43d;" d="M68 6v17l53 10q25 4 40 23.5t15 43.5v1227q0 25 -15.5 44.5t-39.5 23.5l-53 10v16h399v-16l-53 -10q-25 -4 -40.5 -23.5t-15.5 -44.5v-424q63 39 163 45t251 -35q205 -53 318.5 -59t169.5 18v455q0 25 -15.5 44.5t-40.5 23.5l-53 10v16h399v-16l-53 -10h-4 q-25 -4 -40 -23.5t-15 -44.5v-1227q0 -25 15 -44t40 -23l53 -10v-17h-399v17l53 10q25 4 40 23.5t15 43.5v717q-68 -35 -190.5 -38t-321.5 50q-2 0 -17 5.5t-33.5 9.5t-34 9t-17.5 5q-100 27 -169 23t-114 -31v-750q0 -25 15.5 -44t40.5 -23l53 -10v-17h-399z" />
<glyph unicode="&#x43e;" horiz-adv-x="1646" d="M74 713q0 152 59.5 284.5t160.5 232t237 157t292 57.5t292 -57.5t237.5 -157t161 -232.5t59.5 -284q0 -152 -59.5 -285t-161 -232.5t-237.5 -156.5t-292 -57t-292 57t-237 156.5t-160.5 232.5t-59.5 285zM262 713q0 -143 44 -269.5t121 -219.5t178 -147t218 -54t218.5 54 t178 147t120.5 219t44 270q0 143 -44 268t-120.5 219t-178 148.5t-218.5 54.5t-218 -54.5t-178 -148.5t-121 -219t-44 -268z" />
<glyph unicode="&#x43f;" horiz-adv-x="1536" d="M53 6v17l53 10q25 4 40.5 23.5t15.5 43.5v1227q0 25 -15.5 44.5t-40.5 23.5l-53 10v16h1411v-16l-53 -10h-4q-25 -4 -40 -23.5t-15 -44.5v-1227q0 -25 15 -44t40 -23l53 -10v-17h-399v17l53 10q25 4 40 23.5t15 43.5l5 1227q0 25 -15.5 44.5t-40.5 23.5h-719 q-25 -4 -40 -23.5t-15 -44.5v-1227q0 -25 15.5 -44t39.5 -23l54 -10v-17h-400z" />
<glyph unicode="&#x440;" horiz-adv-x="1114" d="M70 6v17l53 10q25 4 40 23.5t15 43.5v1227q0 25 -15.5 44.5t-39.5 23.5l-53 10v16h53q88 0 154.5 5.5t122 11.5t105.5 11t109 5h2q117 0 215.5 -29.5t160 -84t78.5 -130t-26 -170.5q-33 -72 -86 -107.5t-116.5 -44.5t-133 4t-135 39.5t-121 63.5t-92.5 74v-969 q0 -25 15.5 -44t40.5 -23l53 -10v-17h-399zM365 1135q45 -76 127.5 -121t169 -50.5t155 36.5t82.5 141v-2q10 68 -10.5 118t-61.5 82.5t-97 50t-119.5 22.5t-127 -1t-118.5 -20v-256z" />
<glyph unicode="&#x441;" horiz-adv-x="1435" d="M78 719q0 154 55 288t149.5 233t221.5 157.5t272 58.5q47 0 90 -8t84 -25q14 -4 41 -12t55.5 -8t57.5 13.5t49 49.5l18 -6q-10 -47 -15 -104.5t-7 -108.5q-2 -59 -2 -121h-14q-61 133 -153.5 215t-215.5 82q-119 0 -212 -55t-157.5 -150.5t-98.5 -222.5t-34 -272t45 -272 t123 -222.5t181.5 -150.5t222.5 -55q86 0 165.5 30.5t147 85t121 130t88.5 167.5l53 -30q-43 -94 -107.5 -172t-146.5 -134.5t-178 -87t-201 -30.5q-145 0 -272 58t-221.5 157.5t-149.5 233.5t-55 288z" />
<glyph unicode="&#x442;" horiz-adv-x="1595" d="M20 1401l11 20h1534l14 -20l-149 -338l-19 6l-51 326h-469v-1295q0 -25 15.5 -44t39.5 -23l53 -10v-17h-399v17l53 10q25 4 40.5 23.5t15.5 43.5v1295h-469l-52 -326l-18 -6z" />
<glyph unicode="&#x443;" horiz-adv-x="1320" d="M12 1405v16h492v-16l-80 -8q-25 -4 -36 -25.5t1 -44.5l377 -668l305 654q12 29 -3 53.5t-44 28.5l-104 10v16h405v-16l-68 -8q-47 -6 -83.5 -34t-57.5 -69l-545 -1167q-29 -59 -69.5 -96t-104.5 -37q-68 0 -107.5 18.5t-61 45t-27.5 55t-4 49.5q4 45 33.5 76.5t74.5 29.5 q41 -2 71 -30.5t32 -69.5q4 -84 -72 -100q12 -16 36.5 -21.5t52.5 3.5t54.5 32.5t46.5 64.5l230 490h-183l-368 653q-25 45 -67 74t-93 37z" />
<glyph unicode="&#x444;" horiz-adv-x="1490" d="M84 745q6 106 47 207t114.5 177.5t177 122.5t236.5 46v14.5t-2 14.5q0 25 -15 44.5t-40 23.5l-53 10v16h399v-16l-53 -10q-43 -10 -53 -52q-2 -4 -2 -20v-20q133 0 236.5 -46.5t176 -123t112.5 -177t46 -206.5q6 -117 -26.5 -227.5t-103.5 -196.5t-178.5 -138.5 t-248.5 -52.5h-2h-12v-35q0 -25 15 -44t40 -23l53 -10v-17h-399v17l53 10q25 4 40 23.5t15 43.5l2 31l-12 -2q-143 0 -251.5 52t-180.5 139.5t-104.5 198t-26.5 226.5zM289 752q-6 -111 16.5 -217.5t69.5 -189.5t116.5 -132t155.5 -47l12 -6v1110q-86 0 -152.5 -43 t-112.5 -116t-72.5 -166t-32.5 -193zM840 164h12h2q86 0 155.5 52t118 137t71 192.5t15.5 218.5q-6 100 -33.5 192.5t-74.5 163t-113.5 112.5t-152.5 42v-1110z" />
<glyph unicode="&#x445;" horiz-adv-x="1550" d="M8 6v17l21 2q76 8 140 47t107 102l398 584l-387 561q-45 68 -127 78l-62 8v16h424v-16q-14 -4 -19 -17.5t5 -25.5l287 -424l266 389q16 23 5 45.5t-38 26.5l-51 6v16h399v-16l-53 -4q-78 -8 -146.5 -48t-113.5 -106l-240 -348l535 -776q29 -41 77 -65.5t99 -32.5l4 -5 v-16h-422v16l10 3q16 4 23.5 19t-2.5 30l-445 645l-397 -586q-23 -31 -7.5 -64.5t52.5 -37.5l58 -6v-17h-400z" />
<glyph unicode="&#x446;" d="M70 0v16l53 11q25 4 40 23.5t15 43.5v1233q0 25 -15.5 44.5t-39.5 23.5l-53 10v16h399v-16l-53 -10q-25 -4 -40.5 -23.5t-15.5 -44.5v-1221q0 -25 15.5 -44t40.5 -23h788q25 4 40.5 23.5t15.5 43.5v1221q0 25 -15.5 44.5t-40.5 23.5l-53 10v16h399v-16l-53 -10 q-25 -4 -40 -23.5t-15 -44.5v-1229q0 -25 19.5 -39t43.5 -18l54 -6v-4h14q-12 -102 -58.5 -179t-122 -122t-180 -52.5t-231.5 31.5q6 -4 -2 -2q-70 18 -136.5 49t-128 39t-116.5 -23.5t-102 -138.5l-31 7q33 82 80 137q90 104 217 120.5t270 -26.5q90 -29 155.5 -49.5 t125.5 -20.5q33 0 66.5 10.5t64.5 34t54.5 61.5t33.5 93h-1462z" />
<glyph unicode="&#x447;" horiz-adv-x="1579" d="M49 1405v16h400v-16l-54 -10q-25 -4 -40 -23.5t-15 -44.5v-235q0 -223 131 -336t360 -113q129 0 222.5 38t146.5 99q6 8 12.5 14.5t10.5 14.5v518q0 25 -15.5 44.5t-40.5 23.5l-53 10v16h399v-16l-53 -10q-25 -4 -40 -23.5t-15 -44.5v-1233q0 -25 15.5 -44t39.5 -23 l53 -11v-16h-399v16l53 11q25 4 40.5 23.5t15.5 43.5v645q-31 -31 -64 -55q-59 -41 -144 -65.5t-190 -24.5q-207 0 -337 40t-203.5 108.5t-100 158.5t-26.5 191v235q0 25 -15.5 44.5t-40.5 23.5z" />
<glyph unicode="&#x448;" horiz-adv-x="2355" d="M59 0v16l54 11q25 4 40 23.5t15 43.5v1233q0 25 -15.5 44.5t-39.5 23.5l-54 10v16h400v-16l-53 -10q-25 -4 -40.5 -23.5t-15.5 -44.5v-1221q0 -25 15.5 -44t40.5 -23h618q25 4 40 23.5t15 43.5v1221q0 25 -15 44.5t-40 23.5l-53 10l8 16h399v-16l-53 -10 q-25 -4 -40 -23.5t-15 -44.5v-1221q0 -25 15 -44t40 -23h619q25 4 40 23.5t15 43.5v1221q0 25 -15.5 44.5t-39.5 23.5l-54 10v16h400v-16l-54 -10q-25 -4 -40 -23.5t-15 -44.5v-1233q0 -25 15.5 -44t39.5 -23l54 -11v-16h-2231z" />
<glyph unicode="&#x449;" horiz-adv-x="2355" d="M59 0v16l54 11q25 4 40 23.5t15 43.5v1233q0 25 -15.5 44.5t-39.5 23.5l-54 10v16h400v-16l-53 -10q-25 -4 -40.5 -23.5t-15.5 -44.5v-1221q0 -25 15.5 -44t40.5 -23h618q25 4 40 23.5t15 43.5v1221q0 25 -15 44.5t-40 23.5l-53 10l8 16h399v-16l-53 -10 q-25 -4 -40 -23.5t-15 -44.5v-1221q0 -25 15 -44t40 -23h619q25 4 40 23.5t15 43.5v1221q0 25 -15.5 44.5t-39.5 23.5l-54 10v16h400v-16l-54 -10q-25 -4 -40 -23.5t-15 -44.5v-1233q0 -25 19.5 -39t44.5 -18l53 -6v-4h14l6 2q-14 -111 -66 -196t-138 -133t-205 -55t-262 33 q6 -4 -2 -2q-78 20 -154 54t-146.5 42.5t-133 -26.5t-115.5 -149l-35 6q35 88 90 149q102 115 246.5 132.5t306.5 -29.5q102 -31 178 -53.5t141 -22.5q37 0 76 12t75 38t62.5 68t38.5 103h-2216z" />
<glyph unicode="&#x44a;" horiz-adv-x="1558" d="M18 1401l11 20l794 2v-16l-53 -10q-25 -4 -40 -23.5t-15 -44.5v-616q131 123 272 165t258 13q88 -23 146.5 -80t87 -134t28.5 -167t-27.5 -175t-82 -160t-133.5 -120q-70 -41 -147 -54t-149.5 -13t-137 6t-109.5 6h-287v16l53 11q25 4 40.5 23.5t15.5 43.5v1301h-305 l-52 -326l-18 -6zM713 88q88 -55 192.5 -58t194.5 49t153.5 160.5t69.5 274.5h2q4 113 -28.5 182.5t-87 102t-123 32.5t-138 -23.5t-132 -65.5t-103.5 -95v-559z" />
<glyph unicode="&#x44b;" horiz-adv-x="1669" d="M74 0v16l53 11q25 4 40 23.5t15 43.5v1237q0 20 -15 40t-40 24l-53 10v16h389v-16l-53 -10q-25 -4 -40.5 -23.5t-15.5 -44.5v-4v-610q131 123 272.5 165t258.5 13q88 -23 146.5 -80t87 -134t28.5 -167t-27.5 -175t-82 -160t-134.5 -120q-70 -41 -146.5 -54t-149 -13 t-137 6t-110.5 6h-286zM352 88q88 -55 192.5 -58t194.5 49t153.5 160.5t70.5 274.5h2q4 113 -29 182.5t-87 102t-123 32.5t-138.5 -23.5t-132 -65.5t-103.5 -95v-559zM1219 0v16l53 11q25 4 40 23.5t15 43.5v1233q0 25 -15.5 44.5t-39.5 23.5l-53 10v16h399v-16l-53 -10 q-25 -4 -40.5 -23.5t-15.5 -44.5v-1233q0 -25 15.5 -44t40.5 -23l53 -11v-16h-399z" />
<glyph unicode="&#x44c;" horiz-adv-x="1198" d="M74 0v16l53 11q25 4 40 23.5t15 43.5v1237q0 20 -15 40t-40 24l-53 10v16h389v-16l-53 -10q-25 -4 -40.5 -23.5t-15.5 -44.5v-4v-610q131 123 272.5 165t258.5 13q88 -23 146.5 -80t87 -134t28.5 -167t-27.5 -175t-82 -160t-134.5 -120q-70 -41 -146.5 -54t-149 -13 t-137 6t-110.5 6h-286zM352 88q88 -55 192.5 -58t194.5 49t153.5 160.5t70.5 274.5h2q4 113 -29 182.5t-87 102t-123 32.5t-138.5 -23.5t-132 -65.5t-103.5 -95v-559z" />
<glyph unicode="&#x44d;" horiz-adv-x="1570" d="M68 283l45 49q63 -70 126.5 -127.5t138.5 -97t166 -62t212 -22.5q117 0 220 54t180 147t122 219t45 270v18q-55 45 -120.5 43t-125.5 -31q-57 -25 -114.5 -54.5t-113.5 -54t-111.5 -37.5t-110.5 -3q-94 20 -161 69.5t-83 151.5l23 2q8 -47 33.5 -79.5t62.5 -47t81 -9.5 t89 34q39 25 85 52.5t96 52t103.5 42t106.5 19.5q59 2 129 -26t129 -83q-10 131 -57 247t-124 201t-175.5 134t-208.5 49q-74 0 -156 -26.5t-160 -69.5t-146.5 -98.5t-113.5 -112.5l-18 8l98 369h21q10 -49 27.5 -81t53.5 -55q86 51 185.5 79t210.5 28q156 0 294 -57.5 t240.5 -157t161.5 -232.5t59 -284q0 -152 -59 -285t-161.5 -232.5t-241 -156.5t-293.5 -57l-2 2q-115 0 -208 19.5t-174 57t-155 94t-151 128.5z" />
<glyph unicode="&#x44e;" horiz-adv-x="2123" d="M70 6v17l53 10q25 4 40 23.5t15 43.5v1227q0 25 -15.5 44.5t-39.5 23.5l-53 10v16h399v-16l-53 -10q-25 -4 -40.5 -23.5t-15.5 -44.5v-420l224 2q14 45 32 88q59 133 161 232.5t238 157t292 57.5t292 -57.5t237 -157t160.5 -232.5t59.5 -284q0 -152 -59.5 -285 t-160.5 -232.5t-237.5 -156.5t-291.5 -57q-156 0 -292 57t-237.5 156.5t-161 232.5t-59.5 285q0 80 16 153l-213 -2v-764q0 -25 15.5 -44t40.5 -23l53 -10v-17h-399zM745 713q0 -143 44.5 -269.5t121 -219.5t178 -147t218.5 -54t218 54t178 147t121 219t44 270 q0 143 -44 268t-121 219t-178.5 148.5t-217.5 54.5q-117 0 -218.5 -54.5t-178 -148.5t-121 -219t-44.5 -268z" />
<glyph unicode="&#x44f;" horiz-adv-x="1341" d="M24.5 247.5q10.5 59.5 32.5 92.5l2 -8l31 -23q-29 -47 -36 -91t2.5 -81t32 -62.5t56.5 -31.5q55 -10 107.5 74t93.5 223q31 94 74 185t113.5 173t177 152t266.5 121v100q-37 -37 -93.5 -73.5t-121 -63.5t-134 -40t-133 -4t-116.5 45t-86 107q-43 94 -25.5 170t79 130.5 t159.5 84t215 29.5q57 0 108.5 -5t106.5 -11t120.5 -11.5t155.5 -5.5h54v-16l-54 -10q-25 -4 -40 -23.5t-15 -44.5v-1227q0 -25 15.5 -44t39.5 -23l54 -10v-17h-400v17l54 10q25 4 40 23.5t15 43.5v820q-123 -29 -196.5 -94.5t-119 -151.5t-74 -184.5t-65.5 -194.5 q-31 -74 -60.5 -131t-65.5 -97t-81 -61.5t-104 -21.5q-86 0 -128 43t-54.5 101t-2 117.5zM440 1145q14 -98 83 -140t155 -37t169 50t128 121v258q-55 14 -118.5 20t-126 1t-120 -22.5t-98.5 -50t-61.5 -82t-10.5 -118.5z" />
<glyph unicode="&#x451;" horiz-adv-x="1579" d="M72 717q0 152 59 285t160.5 232t238 156.5t291.5 57.5q154 0 287 -56.5t222 -154.5t120 -229t-18 -281h-189h-983v-12q0 -143 44 -269.5t121 -219.5t178.5 -147t217.5 -54q121 0 212 22.5t166 62.5t138.5 97t126.5 127l45 -49q-78 -72 -151.5 -128.5t-154.5 -94t-174 -57 t-208 -19.5q-156 0 -292 57t-237.5 156.5t-160.5 232.5t-59 285zM266 768h996q37 133 14 250t-86.5 203t-159.5 135t-207 49l2 -2q-111 0 -209 -49t-172.5 -135t-122 -202t-55.5 -249zM547 1647q0 43 30.5 73.5t73.5 30.5t74 -30.5t31 -73.5t-31 -74t-74 -31t-73.5 31 t-30.5 74zM909 1647q0 43 31 73.5t74 30.5t73.5 -30.5t30.5 -73.5t-30.5 -74t-73.5 -31t-74 31t-31 74z" />
<glyph unicode="&#x454;" horiz-adv-x="1570" d="M68 713q0 152 59 284.5t161.5 232t240 157t294.5 57.5q111 0 210.5 -27.5t185.5 -79.5q37 23 54 54.5t27 81.5h21l98 -369l-18 -8q-45 57 -113.5 112.5t-146.5 98.5t-160 69.5t-156 26.5q-111 0 -209 -49t-174.5 -134t-125 -201t-56.5 -247q59 55 129 83t129 26 q53 -2 106.5 -19.5t103.5 -42t96 -52.5t85 -52q45 -29 89 -34t81 9.5t62.5 47t34.5 79.5l22 -2q-16 -102 -82.5 -151.5t-161.5 -69.5q-55 -10 -110.5 3t-111.5 37.5t-113.5 54.5t-114.5 54q-59 29 -125 31t-121 -43v-18q0 -143 45 -269.5t122 -219.5t180.5 -147t219.5 -54 q121 0 212 22.5t166 62t138.5 97t126.5 127.5l45 -49q-78 -72 -151.5 -128.5t-154.5 -94t-174 -57t-208 -19.5l-2 -2q-158 0 -295 57t-239.5 156.5t-161.5 232.5t-59 285z" />
<glyph unicode="&#x456;" horiz-adv-x="536" d="M72 6v17l53 10q25 4 40 23.5t15 43.5v1227q0 25 -15 44.5t-40 23.5l-53 10v16h290v-1321q0 -25 15.5 -44t40.5 -23l53 -10v-17h-399zM170 1655q0 41 29.5 70.5t70.5 29.5t71 -29.5t30 -70.5t-30 -71t-71 -30t-70.5 30t-29.5 71z" />
<glyph unicode="&#x457;" horiz-adv-x="536" d="M-16 1642q0 43 30.5 74t73.5 31t74 -30.5t31 -74.5q0 -43 -31 -73.5t-74 -30.5t-73.5 30.5t-30.5 73.5zM70 0v16l53 11q25 4 40 23.5t15 43.5v1227q0 25 -15.5 44t-39.5 24l-53 10v16h290v-1321q0 -25 15.5 -44t40.5 -23l53 -11v-16h-399zM346 1642q0 43 31 74t74 31 t73.5 -30.5t30.5 -74.5q0 -43 -30.5 -73.5t-73.5 -30.5t-74 30.5t-31 73.5z" />
<glyph unicode="&#x45e;" horiz-adv-x="1320" d="M12 1405v16h492v-16l-80 -8q-25 -4 -36 -25.5t1 -44.5l377 -668l305 654q12 29 -3 53.5t-44 28.5l-104 10v16h405v-16l-68 -8q-47 -6 -83.5 -34t-57.5 -69l-545 -1167q-29 -59 -69.5 -96t-104.5 -37q-68 0 -107.5 18.5t-61 45t-27.5 55t-4 49.5q4 45 33.5 76.5t74.5 29.5 q41 -2 71 -30.5t32 -69.5q4 -84 -72 -100q12 -16 36.5 -21.5t52.5 3.5t54.5 32.5t46.5 64.5l230 490h-183l-368 653q-25 45 -67 74t-93 37zM430 1767q0 37 31 64t67 27q35 0 55.5 -23t25.5 -50.5t-7 -54t-43 -32.5q-16 -4 -28.5 -13.5t-12.5 -25.5q0 -31 27.5 -51.5 t68.5 -29.5t89.5 -9t89.5 10t68.5 29.5t27.5 50.5q0 16 -13.5 25.5t-29.5 13.5q-33 6 -46.5 33.5t-6 56.5t33 49.5t70.5 13.5q37 -6 54.5 -30.5t17.5 -61.5q0 -47 -18.5 -90t-52.5 -75.5t-84 -52t-114 -19.5q-63 0 -113 20.5t-85 54t-53.5 77.5t-18.5 93z" />
<glyph unicode="&#x462;" horiz-adv-x="1603" d="M43 1268l18 6q12 -10 33 -19q16 -8 44 -13t69 -5h346v90q0 25 -15.5 44.5t-39.5 23.5l-54 10v16h400v-16l-49 -10q-25 -4 -40.5 -23.5t-15.5 -44.5l-2 -8v-82h357q41 0 68.5 5t43.5 13q20 8 33 19l18 -6l-108 -283l-21 2q-8 70 -57 123q-41 45 -127 76q-76 27 -207 18 v-336l-2 -2q154 43 306.5 28t270.5 -80.5t183.5 -177.5t44.5 -261q-16 -115 -61 -193t-113 -124t-154 -65.5t-186 -19.5q-86 0 -145.5 5.5t-114.5 11.5t-117.5 11t-150.5 5h-54v17l54 10q25 4 40 23.5t15 43.5v1104q-125 8 -197 -18q-86 -31 -127 -76q-49 -53 -57 -123 l-20 -2zM733 37q33 -8 88.5 -18.5t120 -10.5t132 15.5t125.5 56.5t102.5 114.5t60.5 190.5l-2 2q20 139 -31 241.5t-144 161t-214 67.5t-238 -38v-782z" />
<glyph unicode="&#x463;" horiz-adv-x="2070" d="M80 0v16l53 11q25 4 40 23.5t15 43.5v1233q0 25 -15 44.5t-40 23.5l-53 10v16h1255v-16l-53 -10q-25 -4 -40 -23.5t-15 -44.5v-4v-610q131 123 272 165t258 13q88 -20 146.5 -78.5t87 -135.5t28.5 -167t-27.5 -175t-82 -160t-133.5 -120q-70 -41 -147 -54t-149.5 -13 t-137 6t-109.5 6h-287v16l53 11q25 4 40.5 23.5t15.5 43.5v1237v-4q0 25 -15.5 44.5t-40.5 23.5h-573q-25 -4 -40 -23.5t-15 -44.5v-1233q0 -25 15 -44t40 -23l53 -11v-16h-399zM1225 88q88 -55 192.5 -58t194.5 49t153.5 160.5t69.5 274.5h2q4 113 -28.5 182.5t-87 102 t-123 32.5t-138 -23.5t-132 -65.5t-103.5 -95v-559z" />
<glyph unicode="&#x472;" horiz-adv-x="1646" d="M74 713q0 152 59.5 284.5t160.5 232t237 157t292 57.5t292 -57.5t237.5 -157t161 -232.5t59.5 -284q0 -152 -59.5 -285t-161 -232.5t-237.5 -156.5t-292 -57t-292 57t-237 156.5t-160.5 232.5t-59.5 285zM262 668q6 -137 52 -255t121 -205t175 -136t213 -49 q115 0 217.5 53t178 146t120.5 218t45 269q-57 -43 -123.5 -58.5t-139 -13.5t-149.5 14.5t-153 28.5q-74 14 -145.5 27.5t-142 15.5t-138 -9.5t-131.5 -45.5zM262 702q74 49 148.5 76t149.5 36t147.5 4t144.5 -17q76 -14 149.5 -33.5t141 -32t128 -12.5t113.5 22 q-6 137 -52 257t-121.5 209t-175 140.5t-212.5 51.5q-117 0 -218 -56.5t-178 -151.5t-121 -222t-44 -271z" />
<glyph unicode="&#x473;" horiz-adv-x="1646" d="M74 713q0 152 59.5 284.5t160.5 232t237 157t292 57.5t292 -57.5t237.5 -157t161 -232.5t59.5 -284q0 -152 -59.5 -285t-161 -232.5t-237.5 -156.5t-292 -57t-292 57t-237 156.5t-160.5 232.5t-59.5 285zM262 668q6 -137 52 -255t121 -205t175 -136t213 -49 q115 0 217.5 53t178 146t120.5 218t45 269q-57 -43 -123.5 -58.5t-139 -13.5t-149.5 14.5t-153 28.5q-74 14 -145.5 27.5t-142 15.5t-138 -9.5t-131.5 -45.5zM262 702q74 49 148.5 76t149.5 36t147.5 4t144.5 -17q76 -14 149.5 -33.5t141 -32t128 -12.5t113.5 22 q-6 137 -52 257t-121.5 209t-175 140.5t-212.5 51.5q-117 0 -218 -56.5t-178 -151.5t-121 -222t-44 -271z" />
<glyph unicode="&#x490;" horiz-adv-x="1308" d="M70 8v17l53 10q25 4 40 23.5t15 43.5v1227q0 25 -15.5 44.5t-39.5 23.5l-53 10v16h950q51 37 95 79t79 77q20 20 37.5 40.5t34.5 41.5l24 -10l-82 -359q-39 29 -108.5 48.5t-154.5 30.5t-176 14.5t-172 -2t-144.5 -18.5t-90.5 -34l-2 -1229q0 -25 15.5 -44t40.5 -23 l53 -10v-17h-399z" />
<glyph unicode="&#x491;" horiz-adv-x="1308" d="M70 8v17l53 10q25 4 40 23.5t15 43.5v1227q0 25 -15.5 44.5t-39.5 23.5l-53 10v16h950q51 37 95 79t79 77q20 20 37.5 40.5t34.5 41.5l24 -10l-82 -359q-39 29 -108.5 48.5t-154.5 30.5t-176 14.5t-172 -2t-144.5 -18.5t-90.5 -34l-2 -1229q0 -25 15.5 -44t40.5 -23 l53 -10v-17h-399z" />
<glyph unicode="&#x2000;" horiz-adv-x="1008" />
<glyph unicode="&#x2001;" horiz-adv-x="2017" />
<glyph unicode="&#x2002;" horiz-adv-x="1008" />
<glyph unicode="&#x2003;" horiz-adv-x="2017" />
<glyph unicode="&#x2004;" horiz-adv-x="672" />
<glyph unicode="&#x2005;" horiz-adv-x="504" />
<glyph unicode="&#x2006;" horiz-adv-x="336" />
<glyph unicode="&#x2007;" horiz-adv-x="336" />
<glyph unicode="&#x2008;" horiz-adv-x="252" />
<glyph unicode="&#x2009;" horiz-adv-x="403" />
<glyph unicode="&#x200a;" horiz-adv-x="112" />
<glyph unicode="&#x2010;" horiz-adv-x="546" d="M20 457v32h504v-32h-504z" />
<glyph unicode="&#x2011;" horiz-adv-x="546" d="M20 457v32h504v-32h-504z" />
<glyph unicode="&#x2012;" horiz-adv-x="546" d="M20 457v32h504v-32h-504z" />
<glyph unicode="&#x2013;" horiz-adv-x="966" d="M20 457v32h926v-32h-926z" />
<glyph unicode="&#x2014;" horiz-adv-x="1206" d="M20 457v32h1164v-32h-1164z" />
<glyph unicode="&#x2018;" horiz-adv-x="428" d="M87 1071.5q-5 63.5 13.5 130t66.5 130t134 114.5l21 -33q-78 -47 -118 -101.5t-53.5 -107.5t-6 -101t25.5 -81q31 37 78 37h6q43 0 73.5 -31t30.5 -76q0 -43 -30.5 -73.5t-73.5 -30.5h-12q-37 0 -71 30.5t-56.5 80t-27.5 113z" />
<glyph unicode="&#x2019;" horiz-adv-x="428" d="M72 1339q0 43 30.5 74t73.5 31h12l-6 2q37 0 71 -31t56.5 -80t27.5 -112.5t-13.5 -130t-66.5 -131t-134 -113.5l-21 33q76 45 117 100t54.5 108.5t6 101.5t-25.5 81q-31 -37 -78 -37q-43 0 -73.5 30.5t-30.5 73.5z" />
<glyph unicode="&#x201c;" horiz-adv-x="716" d="M87 1071.5q-5 63.5 13.5 130t66.5 130t134 114.5l21 -33q-78 -47 -118 -101.5t-53.5 -107.5t-6 -101t25.5 -81q31 37 78 37h6q45 0 75.5 -31t30.5 -76q0 -43 -30.5 -73.5t-75.5 -30.5h-12q-37 0 -71 30.5t-56.5 80t-27.5 113zM382 1071.5q-5 63.5 13.5 130t66.5 130 t134 114.5l20 -33q-78 -47 -117.5 -101.5t-53 -107.5t-6.5 -101t26 -81q31 37 78 37h6q45 0 75.5 -31t30.5 -76q0 -43 -30.5 -73.5t-75.5 -30.5h-12q-37 0 -71 30.5t-56.5 80t-27.5 113z" />
<glyph unicode="&#x201d;" horiz-adv-x="716" d="M66 1341q0 43 30.5 74t73.5 31h12l-6 2q37 0 71 -31t56.5 -80t27.5 -112.5t-13.5 -130t-66.5 -131t-134 -113.5l-21 33q76 45 117 100t54.5 108.5t6 101.5t-25.5 81q-31 -37 -78 -37q-43 0 -73.5 30.5t-30.5 73.5zM360 1339q0 43 31 74t74 31h12l-6 2q37 0 70.5 -31 t56.5 -80t28 -112.5t-13.5 -130t-66.5 -131t-134 -113.5l-21 33q76 45 117 100t54 108.5t6 101.5t-25 81q-31 -37 -78 -37q-43 0 -74 30.5t-31 73.5z" />
<glyph unicode="&#x2022;" horiz-adv-x="620" d="M72 524q0 49 18.5 92t51 76t75.5 51.5t92 18.5t92 -18.5t76 -51.5t51.5 -76t18.5 -92t-18.5 -92t-51.5 -75.5t-76 -51t-92 -18.5t-92 18.5t-75.5 51t-51 75.5t-18.5 92z" />
<glyph unicode="&#x2026;" horiz-adv-x="1021" d="M51 90q0 43 31 74t74 31t73.5 -31t30.5 -74t-30.5 -73.5t-73.5 -30.5t-74 30.5t-31 73.5zM406 90q0 43 30.5 74t73.5 31t73.5 -31t30.5 -74t-30.5 -73.5t-73.5 -30.5t-73.5 30.5t-30.5 73.5zM760 90q0 43 30.5 74t73.5 31t74 -31t31 -74t-31 -73.5t-74 -30.5t-73.5 30.5 t-30.5 73.5z" />
<glyph unicode="&#x202f;" horiz-adv-x="403" />
<glyph unicode="&#x205f;" horiz-adv-x="504" />
<glyph unicode="&#x20ac;" horiz-adv-x="1933" d="M74 561v33h344q-4 31 -7 61.5t-3 61.5t3 61.5t7 61.5h-344v32h350q27 123 95.5 227.5t165.5 181.5t220 121t258 44q109 0 207 -27.5t184 -77.5l344 119l15 -14l-232 -293h-24q-92 117 -220 184.5t-276 67.5q-100 0 -191 -41t-164 -112.5t-124 -170t-72 -213.5h625v-32 h-631q-4 -29 -6 -60t-2 -61q0 -31 2 -61.5t6 -59.5h631v-33h-625q20 -115 71.5 -213t124.5 -170t164 -112.5t191 -40.5q141 0 261 55t206 153l49 -51q-102 -92 -233 -143t-281 -51q-135 0 -258 43t-220 119.5t-165.5 182t-95.5 228.5h-350z" />
<glyph unicode="&#x25fc;" horiz-adv-x="1423" d="M0 0v1423h1423v-1423h-1423z" />
</font>
</defs>
</svg>
